<?xml version="1.0" standalone="no"?>
<!DOCTYPE svg PUBLIC "-//W3C//DTD SVG 1.1//EN" "http://www.w3.org/Graphics/SVG/1.1/DTD/svg11.dtd" >
<svg xmlns="http://www.w3.org/2000/svg" xmlns:xlink="http://www.w3.org/1999/xlink" version="1.1">
<metadata>
Created by FontForge 20190801 at Mon Jul 26 12:50:37 2021
 By www-data
Copyright (c) 2018-2021 by Avraham Cornfeld. All rights reserved.
</metadata>
<defs>
<font id="ploniregularaaa" horiz-adv-x="0" >
  <font-face 
    font-family="ploniregularaaa"
    font-weight="400"
    font-stretch="normal"
    units-per-em="1158"
    panose-1="0 0 5 0 0 0 0 0 0 0"
    ascent="926"
    descent="-232"
    x-height="550"
    cap-height="700"
    bbox="-709 -279 1557 1060"
    underline-thickness="73"
    underline-position="-173"
    unicode-range="U+0020-1F10B"
  />
<missing-glyph horiz-adv-x="540" 
d="M61 700h417q29 0 29 -28v-645q0 -27 -29 -27h-417q-27 0 -27 27v645q0 28 27 28zM403 638h-266l133 -232zM102 104l135 246l-135 246v-492zM439 105v491l-137 -246zM137 62h266l-133 232z" />
    <glyph glyph-name="f_f.liga" unicode="ff" horiz-adv-x="649" 
d="M578 696q-93 0 -93 -121v-25h144v-70h-144v-480h-89v480h-197v-480h-89v480h-82v70h82v45q0 67 26 111t66.5 59t87.5 8.5t91 -34.5l-27 -63q-38 23 -72.5 24t-58.5 -27.5t-24 -85.5v-37h197v41q0 92 46 137t117 45q65 0 146 -46l-33 -59q-62 28 -94 28z" />
    <glyph glyph-name="f_f_i.liga" unicode="ffi" horiz-adv-x="849" 
d="M771 550v-550h-89v480h-197v-480h-89v480h-197v-480h-89v480h-82v70h82v45q0 67 26 111t66.5 59t87.5 8.5t91 -34.5l-27 -63q-38 23 -72.5 24t-58.5 -27.5t-24 -85.5v-37h197v23q0 81 33.5 137t85.5 75.5t118 3t128 -69.5l-48 -58q-89 73 -158.5 47.5t-69.5 -135.5v-23
h286z" />
    <glyph glyph-name="f_f_l.liga" unicode="ffl" horiz-adv-x="866" 
d="M396 550v26q0 114 57 174.5t147.5 58t189.5 -63.5v-745h-89v699q-64 27 -112 24.5t-76 -42.5t-28 -113v-18h133v-70h-133v-480h-89v480h-197v-480h-89v480h-82v70h82v45q0 67 26 111t66.5 59t87.5 8.5t91 -34.5l-27 -63q-38 23 -72.5 24t-58.5 -27.5t-24 -85.5v-37h197z
" />
    <glyph glyph-name="f_i.liga" unicode="fi" horiz-adv-x="562" 
d="M485 550v-550h-89v480h-197v-480h-89v480h-82v70h82v23q0 81 33.5 137t85.5 75.5t118 3t127 -69.5l-47 -58q-89 73 -158.5 47.5t-69.5 -135.5v-23h286z" />
    <glyph glyph-name="f_l.liga" unicode="fl" horiz-adv-x="580" 
d="M110 550v26q0 114 57 174.5t147 58t190 -63.5v-745h-89v699q-64 27 -112 24.5t-76 -42.5t-28 -113v-18h132v-70h-132v-480h-89v480h-82v70h82z" />
    <glyph glyph-name="uni05D005D005D0.liga" unicode="&#x5d0;&#x5d0;&#x5d0;" horiz-adv-x="1322" 
d="M55 596v4h105l479 -596v-4h-105l-271 338q-61 -34 -89 -112t-24 -226h-94q-4 174 34.5 265.5t122.5 133.5zM366 596v4h105l479 -596v-4h-105zM1103 201l158 -197v-4h-105l-479 596v4h105l271 -338q61 34 88.5 112t24.5 226h94q4 -174 -34.5 -265.5t-122.5 -133.5z" />
    <glyph glyph-name=".notdef" horiz-adv-x="540" 
d="M61 700h417q29 0 29 -28v-645q0 -27 -29 -27h-417q-27 0 -27 27v645q0 28 27 28zM403 638h-266l133 -232zM102 104l135 246l-135 246v-492zM439 105v491l-137 -246zM137 62h266l-133 232z" />
    <glyph glyph-name=".null" 
 />
    <glyph glyph-name="nonmarkingreturn" horiz-adv-x="386" 
 />
    <glyph glyph-name="space" unicode=" " horiz-adv-x="300" 
 />
    <glyph glyph-name="exclam" unicode="!" horiz-adv-x="307" 
d="M208 700l-13 -487h-84l-12 487h109zM153 -6q-29 0 -49 20t-20 49t20 49.5t49 20.5t49 -20.5t20 -49.5t-20 -49t-49 -20z" />
    <glyph glyph-name="quotedbl" unicode="&#x22;" horiz-adv-x="376" 
d="M43 417l56 283h92l-77 -283h-71zM205 417l56 283h92l-77 -283h-71z" />
    <glyph glyph-name="numbersign" unicode="#" horiz-adv-x="814" 
d="M789 522l-17 -75h-153l-41 -181h153l-17 -75h-153l-44 -191h-93l44 191h-197l-44 -191h-92l44 191h-154l17 75h154l41 181h-154l17 75h154l41 178h92l-41 -178h197l41 178h93l-41 -178h153zM288 266h197l41 181h-197z" />
    <glyph glyph-name="dollar" unicode="$" horiz-adv-x="601" 
d="M546 194q0 -87 -63.5 -133t-156.5 -52v-78h-54v78q-88 5 -150.5 48.5t-84.5 120.5l73 39q38 -117 162 -130v240q-32 9 -51 15t-49 17.5t-48.5 25t-37 32t-27.5 43.5t-9 55q0 87 63 130.5t159 45.5v78h54v-80q158 -17 208 -149l-75 -35q-37 90 -133 106v-220q1 -1 2 -1
q54 -14 88 -27.5t66.5 -35.5t48 -55t15.5 -78zM138 515q0 -42 33.5 -66t100.5 -44v210q-134 -4 -134 -100zM326 312v-226q59 4 96 30t37 75q0 47 -32 73.5t-101 47.5z" />
    <glyph glyph-name="percent" unicode="%" horiz-adv-x="826" 
d="M223 292q-82 0 -130.5 56.5t-48.5 150.5t48.5 150.5t130.5 56.5q81 0 129.5 -56.5t48.5 -150.5t-48.5 -150.5t-129.5 -56.5zM464 454v7l173 239h89v-5l-182 -241h-80zM223 351q52 0 81.5 40t29.5 108q0 69 -29.5 109t-81.5 40t-82 -40t-30 -109q0 -68 30 -108t82 -40z
M605 -7q-83 0 -131.5 56.5t-48.5 150.5t48.5 151t131.5 57q81 0 129.5 -57t48.5 -151q0 -93 -48.5 -150t-129.5 -57zM605 52q51 0 81 40.5t30 107.5q0 69 -30 109.5t-81 40.5q-52 0 -82.5 -40.5t-30.5 -109.5q0 -67 30.5 -107.5t82.5 -40.5zM368 246v-7l-173 -239h-89v5
l183 241h79z" />
    <glyph glyph-name="ampersand" unicode="&#x26;" horiz-adv-x="668" 
d="M554 353l79 -26q-34 -136 -97 -214l91 -107v-6h-102l-48 55q-84 -64 -217 -64q-106 -1 -167.5 54t-61.5 132q0 74 36 129t107 106q-47 76 -35.5 142t72 110.5t143.5 44.5q186 0 227 -179l-78 -24q-33 123 -147 123q-54 0 -90 -31t-37.5 -76t38.5 -96l213 -249
q51 69 74 176zM268 70q88 0 155 49l-197 230q-102 -69 -102 -160q0 -51 39.5 -85t104.5 -34z" />
    <glyph glyph-name="quotesingle" unicode="'" horiz-adv-x="217" 
d="M43 417l57 283h94l-78 -283h-73z" />
    <glyph glyph-name="parenleft" unicode="(" horiz-adv-x="339" 
d="M221 700h77q-52 -59 -91.5 -171t-39.5 -229t39.5 -229t91.5 -171h-77q-68 71 -106.5 175.5t-38.5 224.5t38.5 224.5t106.5 175.5z" />
    <glyph glyph-name="parenright" unicode=")" horiz-adv-x="339" 
d="M41 700h77q67 -71 105.5 -175.5t38.5 -224.5t-38.5 -224.5t-105.5 -175.5h-77q52 59 91.5 171t39.5 229t-39.5 229t-91.5 171z" />
    <glyph glyph-name="asterisk" unicode="*" horiz-adv-x="541" 
d="M465 588l24 -74l-162 -48l103 -134l-63 -46l-96 140l-97 -140l-62 46l103 134l-162 48l24 74l159 -56l-4 168h78l-5 -168z" />
    <glyph glyph-name="plus" unicode="+" horiz-adv-x="544" 
d="M311 339h165v-78h-165v-165h-78v165h-164v78h164v165h78v-165z" />
    <glyph glyph-name="comma" unicode="," horiz-adv-x="224" 
d="M22 -136l57 277h93l-79 -277h-71z" />
    <glyph glyph-name="hyphen" unicode="-" horiz-adv-x="512" 
d="M444 261h-375v78h375v-78z" />
    <glyph glyph-name="period" unicode="." horiz-adv-x="239" 
d="M120 -6q-29 0 -49 20t-20 49t20 49.5t49 20.5t49 -20.5t20 -49.5t-20.5 -49t-48.5 -20z" />
    <glyph glyph-name="slash" unicode="/" horiz-adv-x="454" 
d="M347 700h91v-5l-331 -695h-91v5z" />
    <glyph glyph-name="zero" unicode="0" horiz-adv-x="671" 
d="M336 -10q-131 0 -208.5 97t-77.5 263t77.5 263t208.5 97t208 -97t77 -263t-77 -263t-208 -97zM336 75q88 0 139.5 74t51.5 201t-51.5 201t-139.5 74t-140 -74t-52 -201t52 -201t140 -74z" />
    <glyph glyph-name="one" unicode="1" horiz-adv-x="405" 
d="M23 473l222 227h59v-700h-94v554l-132 -139z" />
    <glyph glyph-name="two" unicode="2" horiz-adv-x="580" 
d="M129 467l-92 14q18 120 86 174.5t168 54.5q108 0 170.5 -55t62.5 -149q0 -64 -42.5 -131t-144.5 -173l-125 -122h321v-80h-493v15l200 214q111 114 149.5 169t38.5 109t-36.5 87t-101.5 33q-64 0 -107.5 -38.5t-53.5 -121.5z" />
    <glyph glyph-name="three" unicode="3" horiz-adv-x="588" 
d="M407 376q60 -13 99 -59t39 -118q0 -94 -70 -151.5t-192 -57.5q-95 0 -162 36t-98 87l66 49q71 -92 190 -92q79 0 125.5 36.5t46.5 101.5q0 62 -46.5 93.5t-121.5 31.5h-101v77h90q62 0 100 29.5t38 79.5q0 53 -36.5 82t-103.5 29q-104 0 -169 -87l-58 49q34 54 94.5 86
t139.5 32q106 0 166.5 -51t60.5 -133q0 -108 -97 -150z" />
    <glyph glyph-name="four" unicode="4" horiz-adv-x="595" 
d="M469 213h88v-80h-88v-133h-94v133h-351v75l368 492h77v-487zM377 552h-1l-252 -339h253v339z" />
    <glyph glyph-name="five" unicode="5" horiz-adv-x="546" 
d="M250 457q122 0 183 -66t61 -169q0 -101 -72 -166.5t-182 -65.5q-112 0 -196 43l29 78q71 -38 157 -38q72 0 119 41.5t47 111.5q0 71 -47.5 115t-137.5 44q-61 0 -142 -18l-4 1l29 332h376v-80h-288l-17 -170q43 7 85 7z" />
    <glyph glyph-name="six" unicode="6" horiz-adv-x="579" 
d="M317 454q97 0 161 -64.5t64 -162.5q0 -102 -72 -169.5t-181 -67.5t-181 66.5t-72 165.5q0 53 17.5 97.5t56.5 100.5l205 280h111v-5l-196 -260q38 19 87 19zM289 73q68 0 112.5 44t44.5 110q0 67 -44.5 111t-112.5 44t-112.5 -44t-44.5 -111q0 -66 44.5 -110t112.5 -44z
" />
    <glyph glyph-name="seven" unicode="7" horiz-adv-x="515" 
d="M31 620v80h460v-11l-263 -689h-99l237 620h-335z" />
    <glyph glyph-name="eight" unicode="8" horiz-adv-x="589" 
d="M421 379q62 -26 97 -74t35 -109q0 -90 -73 -148.5t-185 -58.5q-113 0 -186 58.5t-73 148.5q0 61 35 109t97 74q-97 49 -97 147q0 80 63 131.5t161 51.5q97 0 160 -51.5t63 -131.5q0 -98 -97 -147zM295 631q-57 0 -93.5 -32t-36.5 -81q0 -47 36.5 -77t93.5 -30
q56 0 92.5 30t36.5 77q0 49 -36.5 81t-92.5 32zM295 72q71 0 117 38t46 96t-46 95.5t-117 37.5t-117 -37.5t-46 -95.5q0 -59 46 -96.5t117 -37.5z" />
    <glyph glyph-name="nine" unicode="9" horiz-adv-x="586" 
d="M288 710q109 0 181 -66.5t72 -165.5q0 -53 -17.5 -97.5t-56.5 -100.5l-204 -280h-112v5l196 260q-38 -19 -86 -19q-97 0 -161 64.5t-64 162.5q0 102 71.5 169.5t180.5 67.5zM288 318q69 0 113.5 44t44.5 111q0 66 -45 110t-113 44q-67 0 -112 -44t-45 -110
q0 -67 44.5 -111t112.5 -44z" />
    <glyph glyph-name="colon" unicode=":" horiz-adv-x="279" 
d="M140 419q-29 0 -49 20t-20 49t20 49t49 20q28 0 48.5 -20.5t20.5 -48.5t-20.5 -48.5t-48.5 -20.5zM140 -6q-29 0 -49 20t-20 49t20 49.5t49 20.5t49 -20.5t20 -49.5t-20.5 -49t-48.5 -20z" />
    <glyph glyph-name="semicolon" unicode=";" horiz-adv-x="291" 
d="M152 419q-29 0 -49 20t-20 49t20 49t49 20q28 0 48.5 -20.5t20.5 -48.5t-20.5 -48.5t-48.5 -20.5zM53 -129l57 263h92l-79 -263h-70z" />
    <glyph glyph-name="less" unicode="&#x3c;" horiz-adv-x="515" 
d="M437 84l-369 178v76l369 179v-83l-284 -134l284 -133v-83z" />
    <glyph glyph-name="equal" unicode="=" horiz-adv-x="573" 
d="M499 376h-424v75h424v-75zM499 150h-424v74h424v-74z" />
    <glyph glyph-name="greater" unicode="&#x3e;" horiz-adv-x="515" 
d="M447 338v-76l-369 -178v83l284 133l-284 134v83z" />
    <glyph glyph-name="question" unicode="?" horiz-adv-x="577" 
d="M312 205h-85q-1 44 13 78.5t36.5 54.5t49 40.5t49 37t38 43.5t15.5 60q0 54 -35.5 83t-98.5 29q-65 0 -109 -36.5t-61 -108.5l-83 20q19 99 88 153t175 52q103 -2 160 -48.5t57 -133.5q0 -43 -16 -78t-39.5 -56t-50.5 -43t-50.5 -40t-38.5 -45.5t-14 -61.5zM270 -5
q-26 0 -44.5 18.5t-18.5 44.5t18.5 44t44.5 18t44.5 -18t18.5 -44t-18.5 -44.5t-44.5 -18.5z" />
    <glyph glyph-name="at" unicode="@" horiz-adv-x="961" 
d="M480 711q182 0 307.5 -125t125.5 -306q0 -276 -172 -276q-54 0 -84.5 31t-39.5 79q-50 -64 -152 -64q-79 0 -129.5 42.5t-50.5 108.5q0 67 50 109t130 42q82 0 134 -47v1q0 135 -130 135q-77 0 -142 -43l-25 51q75 53 178 53q190 0 190 -193v-102q0 -133 73 -133
q94 0 94 206q0 148 -104.5 252.5t-252.5 104.5t-252 -104.5t-104 -253.5q0 -163 121 -270t297 -84l11 -73q-110 -12 -205.5 17.5t-160.5 89.5t-102 143.5t-37 176.5q0 181 125 306.5t307 125.5zM479 105q55 0 89 26.5t33 70.5q0 44 -34 70.5t-88 26.5q-55 0 -89 -26.5
t-34 -70.5t34 -70.5t89 -26.5z" />
    <glyph glyph-name="A" unicode="A" horiz-adv-x="672" 
d="M301 700h70l302 -694v-6h-97l-67 160h-346l-67 -160h-97v6zM336 572l-141 -337h282z" />
    <glyph glyph-name="B" unicode="B" horiz-adv-x="677" 
d="M515 373q54 -18 84.5 -64t30.5 -111q0 -93 -58.5 -145.5t-158.5 -52.5h-322v700h314q90 0 143 -49t53 -133q0 -106 -86 -145zM392 624h-210v-219h210q58 0 89.5 29t31.5 80t-32 80.5t-89 29.5zM182 76h219q65 0 102.5 35t37.5 95t-37 94.5t-103 34.5h-219v-259z" />
    <glyph glyph-name="C" unicode="C" horiz-adv-x="686" 
d="M405 73q57 0 109.5 21.5t78.5 53.5l57 -60q-38 -47 -103.5 -73t-146.5 -26q-150 0 -250.5 103.5t-100.5 257.5t100.5 257.5t250.5 103.5q81 0 146.5 -26t103.5 -73l-57 -60q-26 32 -78.5 53.5t-109.5 21.5q-113 0 -189 -79t-76 -198t76 -198t189 -79z" />
    <glyph glyph-name="D" unicode="D" horiz-adv-x="735" 
d="M91 700h226q176 0 272.5 -91.5t96.5 -258.5t-96.5 -258.5t-272.5 -91.5h-226v700zM185 80h136q129 0 200 70.5t71 199.5t-71 199.5t-200 70.5h-136v-540z" />
    <glyph glyph-name="E" unicode="E" horiz-adv-x="629" 
d="M573 700v-80h-388v-220h342v-77h-342v-243h388v-80h-482v700h482z" />
    <glyph glyph-name="F" unicode="F" horiz-adv-x="590" 
d="M544 700v-80h-359v-228h317v-77h-317v-315h-94v700h453z" />
    <glyph glyph-name="G" unicode="G" horiz-adv-x="796" 
d="M426 397h318q19 -180 -75.5 -294t-260.5 -114q-157 0 -258 101.5t-101 259.5t101 259t258 101q82 0 155 -34.5t117 -91.5l-62 -55q-35 44 -91 70.5t-118 26.5q-116 0 -190 -77t-74 -199q0 -121 74 -197.5t190 -76.5q110 0 179.5 68.5t69.5 178.5h-232v74z" />
    <glyph glyph-name="H" unicode="H" horiz-adv-x="752" 
d="M567 405v295h94v-700h-94v325h-382v-325h-94v700h94v-295h382z" />
    <glyph glyph-name="I" unicode="I" horiz-adv-x="276" 
d="M91 0v700h94v-700h-94z" />
    <glyph glyph-name="J" unicode="J" horiz-adv-x="519" 
d="M5 149l84 32q10 -50 44.5 -78.5t85.5 -28.5q57 0 89.5 35.5t32.5 98.5v492h94v-492q0 -103 -55.5 -160.5t-156.5 -57.5q-84 0 -141 40.5t-77 118.5z" />
    <glyph glyph-name="K" unicode="K" horiz-adv-x="639" 
d="M612 696l-345 -330l357 -362v-4h-115l-324 331v-331h-94v700h94v-303l312 303h115v-4z" />
    <glyph glyph-name="L" unicode="L" horiz-adv-x="574" 
d="M185 700v-620h355v-80h-449v700h94z" />
    <glyph glyph-name="M" unicode="M" horiz-adv-x="914" 
d="M457 301l284 399h82v-700h-91v534l-263 -364h-25l-262 364v-534h-91v700h82z" />
    <glyph glyph-name="N" unicode="N" horiz-adv-x="774" 
d="M683 700v-700h-68l-432 533v-533h-92v700h68l432 -533v533h92z" />
    <glyph glyph-name="O" unicode="O" horiz-adv-x="812" 
d="M406 -11q-154 0 -255.5 102.5t-101.5 258.5t101.5 258.5t255.5 102.5t255.5 -102.5t101.5 -258.5t-101.5 -258.5t-255.5 -102.5zM406 77q114 0 188.5 77.5t74.5 195.5t-74.5 195.5t-188.5 77.5t-188.5 -77.5t-74.5 -195.5t74.5 -195.5t188.5 -77.5z" />
    <glyph glyph-name="P" unicode="P" horiz-adv-x="651" 
d="M91 700h271q113 0 176.5 -62.5t63.5 -168.5q0 -108 -63 -169.5t-177 -61.5h-177v-238h-94v700zM185 318h165q75 0 116.5 40t41.5 111q0 68 -42 109.5t-116 41.5h-165v-302z" />
    <glyph glyph-name="Q" unicode="Q" horiz-adv-x="816" 
d="M763 350q0 -150 -97 -247l91 -98v-5h-108l-47 50q-84 -57 -200 -57q-151 0 -252 101t-101 256q0 156 101.5 258.5t255.5 102.5t255.5 -102.5t101.5 -258.5zM406 77q77 0 137 37l-191 205v5h108l146 -157q63 74 63 183q0 118 -74.5 195.5t-188.5 77.5t-188.5 -77.5
t-74.5 -195.5t74.5 -195.5t188.5 -77.5z" />
    <glyph glyph-name="R" unicode="R" horiz-adv-x="663" 
d="M465 283l155 -277v-6h-99l-148 274h-188v-274h-94v700h298q105 0 166 -57.5t61 -155.5q0 -78 -39.5 -131t-111.5 -73zM378 620h-193v-266h193q66 0 105 36.5t39 96.5t-39 96.5t-105 36.5z" />
    <glyph glyph-name="S" unicode="S" horiz-adv-x="629" 
d="M562 551l-80 -37q-47 116 -187 116q-67 0 -109 -25.5t-42 -80.5q0 -15 3.5 -27t12.5 -22.5t16.5 -18.5t25.5 -16t28.5 -13t35.5 -12.5t37 -11t42 -11.5q57 -15 93 -29t70.5 -37.5t50.5 -58t16 -81.5q0 -52 -23 -91.5t-61.5 -61.5t-83.5 -33t-94 -11q-103 0 -177 46
t-99 134l77 41q23 -71 77 -105.5t127 -34.5q71 0 117.5 27.5t46.5 84.5q0 56 -42.5 85t-138.5 55q-35 10 -48 13.5t-46.5 15t-49 20.5t-40.5 25.5t-36 33.5t-20.5 41.5t-9.5 53.5q0 95 71 140.5t177 45.5q102 0 168.5 -43t94.5 -117z" />
    <glyph glyph-name="T" unicode="T" horiz-adv-x="631" 
d="M37 700h558v-80h-232v-620h-94v620h-232v80z" />
    <glyph glyph-name="U" unicode="U" horiz-adv-x="759" 
d="M582 288v412h94v-418q0 -136 -79 -214.5t-217 -78.5t-216.5 78.5t-79.5 214.5l-1 418h94v-412q0 -99 54 -155.5t149 -56.5q94 0 148 56.5t54 155.5z" />
    <glyph glyph-name="V" unicode="V" horiz-adv-x="683" 
d="M376 0h-69l-286 694v6h101l220 -542l219 542h102v-6z" />
    <glyph glyph-name="W" unicode="W" horiz-adv-x="1026" 
d="M905 700h100v-7l-239 -693h-65l-188 542l-188 -542h-65l-239 693v7h100l176 -527l178 527h76l178 -527z" />
    <glyph glyph-name="X" unicode="X" horiz-adv-x="684" 
d="M668 4v-4h-108l-218 297l-219 -297h-107l1 4l264 357l-249 335v4h107l203 -274l202 274h108v-4l-249 -335z" />
    <glyph glyph-name="Y" unicode="Y" horiz-adv-x="625" 
d="M311 376l197 324h104v-5l-254 -410v-285h-94v285l-252 410v5h105z" />
    <glyph glyph-name="Z" unicode="Z" horiz-adv-x="628" 
d="M57 700h524v-8l-403 -612h403v-80h-546v8l403 612h-381v80z" />
    <glyph glyph-name="bracketleft" unicode="[" horiz-adv-x="382" 
d="M96 760h244v-72h-156v-776h156v-72h-244v920z" />
    <glyph glyph-name="backslash" unicode="\" horiz-adv-x="454" 
d="M16 695v5h91l331 -695v-5h-91z" />
    <glyph glyph-name="bracketright" unicode="]" horiz-adv-x="382" 
d="M42 688v72h244v-920h-244v72h156v776h-156z" />
    <glyph glyph-name="asciicircum" unicode="^" horiz-adv-x="614" 
d="M304 718h4l255 -287l-61 -57l-196 235l-194 -235l-61 56z" />
    <glyph glyph-name="underscore" unicode="_" horiz-adv-x="429" 
d="M25 -138v80h380v-80h-380z" />
    <glyph glyph-name="grave" unicode="`" horiz-adv-x="491" 
d="M117 716h105l81 -116h-77z" />
    <glyph glyph-name="a" unicode="a" horiz-adv-x="593" 
d="M288 561q116 0 179.5 -60.5t63.5 -184.5v-316h-91v56q-61 -66 -171 -66q-100 0 -164 53.5t-64 137.5t64 137.5t164 53.5q110 0 171 -66v10q0 86 -43 129.5t-123 43.5q-100 0 -181 -56l-30 61q96 67 225 67zM287 54q70 0 113.5 36t43.5 92t-43.5 92t-113.5 36t-113.5 -36
t-43.5 -92t43.5 -92t113.5 -36z" />
    <glyph glyph-name="b" unicode="b" horiz-adv-x="669" 
d="M374 558q110 0 182 -81t72 -202t-72 -202t-182 -81q-69 0 -123 31.5t-86 88.5v-112h-89v750h89v-312q32 57 86 88.5t123 31.5zM356 69q80 0 132 58.5t52 147.5t-52 147.5t-132 58.5q-82 0 -136.5 -59t-54.5 -147t54.5 -147t136.5 -59z" />
    <glyph glyph-name="c" unicode="c" horiz-adv-x="595" 
d="M41 275q0 125 77.5 205t198.5 80q80 0 143.5 -40.5t93.5 -106.5l-71 -36q-25 47 -68 75.5t-98 28.5q-84 0 -137.5 -58t-53.5 -148t53.5 -148t137.5 -58q56 0 99.5 28.5t66.5 76.5l71 -37q-30 -66 -93.5 -106.5t-143.5 -40.5q-121 0 -198.5 80t-77.5 205z" />
    <glyph glyph-name="d" unicode="d" horiz-adv-x="669" 
d="M505 436v314h88v-750h-88v114q-67 -122 -210 -122q-110 0 -182 81t-72 202t72 202t182 81q143 0 210 -122zM313 69q82 0 137 58.5t55 147.5t-55 147.5t-137 58.5q-79 0 -131 -58.5t-52 -147.5t52 -147.5t131 -58.5z" />
    <glyph glyph-name="e" unicode="e" horiz-adv-x="624" 
d="M314 559q133 0 207 -97t60 -223h-455q11 -76 62 -123t126 -47q97 0 152 79l68 -47q-80 -110 -220 -110q-118 0 -195.5 81.5t-77.5 202.5q0 122 77.5 203t195.5 81zM314 480q-76 0 -128 -48.5t-61 -125.5h374q-7 73 -55.5 123.5t-129.5 50.5z" />
    <glyph glyph-name="f" unicode="f" horiz-adv-x="363" 
d="M291 696q-92 0 -92 -121v-25h143v-70h-143v-480h-89v480h-82v70h82v41q0 92 46 137t117 45q64 0 145 -46l-33 -59q-60 28 -94 28z" />
    <glyph glyph-name="g" unicode="g" horiz-adv-x="582" 
d="M578 558v-80q-67 0 -108 -22q27 -46 27 -103q0 -88 -62 -145.5t-157 -57.5q-62 0 -111 23q-32 -26 -32 -57q0 -53 97 -53h129q194 0 194 -148q0 -81 -64 -124t-184 -43q-179 0 -294 66l36 70q98 -56 258 -56t160 85q0 42 -29 57.5t-91 15.5h-132q-83 0 -127.5 29
t-44.5 83q0 65 67 113q-60 57 -60 142q0 90 63.5 148.5t160.5 58.5q91 0 155 -54q42 52 149 52zM278 226q58 0 95.5 36t37.5 91q0 57 -39 94t-98 37q-60 0 -99 -37t-39 -94q0 -56 40 -91.5t102 -35.5z" />
    <glyph glyph-name="h" unicode="h" horiz-adv-x="636" 
d="M361 556q100 0 156.5 -68t56.5 -188v-300h-89v300q0 83 -43 132.5t-115 49.5q-73 0 -117.5 -50t-44.5 -132v-300h-89v750h89v-303q62 109 196 109z" />
    <glyph glyph-name="i" unicode="i" horiz-adv-x="241" 
d="M120 637q-25 0 -42.5 18t-17.5 43t17.5 42.5t42.5 17.5t43 -17.5t18 -42.5q0 -26 -17.5 -43.5t-43.5 -17.5zM165 0h-89v550h89v-550z" />
    <glyph glyph-name="j" unicode="j" horiz-adv-x="237" 
d="M117 637q-25 0 -43 17.5t-18 43.5q0 25 17.5 42t43.5 17q25 0 42.5 -17t17.5 -42q0 -26 -17.5 -43.5t-42.5 -17.5zM-118 -215l32 65q42 -20 78 -20q40 0 60 27.5t20 96.5v596h89v-610q0 -193 -152 -193q-58 0 -127 38z" />
    <glyph glyph-name="k" unicode="k" horiz-adv-x="522" 
d="M511 547l-262 -244l270 -300v-3h-105l-249 279v-279h-89v750h89v-425l237 225h109v-3z" />
    <glyph glyph-name="l" unicode="l" horiz-adv-x="241" 
d="M165 0h-89v750h89v-750z" />
    <glyph glyph-name="m" unicode="m" horiz-adv-x="946" 
d="M685 559q87 0 141.5 -57.5t54.5 -154.5v-347h-89v336q0 66 -37.5 107.5t-96.5 41.5q-60 0 -97.5 -41.5t-37.5 -107.5v-336h-89v336q0 66 -37.5 107.5t-96.5 41.5q-60 0 -97.5 -41.5t-37.5 -107.5v-336h-89v550h89v-82q53 91 165 91q63 0 107.5 -31.5t62.5 -85.5
q23 55 71.5 86t113.5 31z" />
    <glyph glyph-name="n" unicode="n" horiz-adv-x="636" 
d="M358 559q101 0 158.5 -66.5t56.5 -184.5v-308h-89l1 303q0 82 -43.5 131.5t-114.5 49.5q-73 0 -117.5 -49.5t-44.5 -131.5v-303h-89v550h89v-100q60 109 193 109z" />
    <glyph glyph-name="o" unicode="o" horiz-adv-x="637" 
d="M318 -12q-121 0 -199 80.5t-78 206.5t78 206.5t199 80.5q122 0 200 -80.5t78 -206.5t-78 -206.5t-200 -80.5zM318 68q83 0 137.5 58.5t54.5 148.5t-54.5 148.5t-137.5 58.5t-137 -58.5t-54 -148.5t54 -148.5t137 -58.5z" />
    <glyph glyph-name="p" unicode="p" horiz-adv-x="669" 
d="M374 558q110 0 182 -81t72 -202t-72 -202t-182 -81q-69 0 -123 31.5t-86 88.5v-312h-89v750h89v-112q32 57 86 88.5t123 31.5zM356 69q80 0 132 58.5t52 147.5t-52 147.5t-132 58.5q-82 0 -136.5 -59t-54.5 -147t54.5 -147t136.5 -59z" />
    <glyph glyph-name="q" unicode="q" horiz-adv-x="669" 
d="M505 436v114h88v-750h-88v314q-67 -122 -210 -122q-110 0 -182 81t-72 202t72 202t182 81q143 0 210 -122zM313 69q82 0 137 58.5t55 147.5t-55 147.5t-137 58.5q-79 0 -131 -58.5t-52 -147.5t52 -147.5t131 -58.5z" />
    <glyph glyph-name="r" unicode="r" horiz-adv-x="418" 
d="M159 402h2q18 68 80.5 111.5t143.5 40.5v-85q-88 5 -153.5 -53.5t-65.5 -165.5v-250h-90v550h76z" />
    <glyph glyph-name="s" unicode="s" horiz-adv-x="518" 
d="M469 434l-74 -31q-16 40 -53 63.5t-91 23.5q-52 0 -85 -20t-33 -59q0 -17 8.5 -31t20 -23.5t34.5 -18t41 -13.5t49 -12q95 -23 143.5 -59.5t48.5 -108.5q0 -77 -65 -117t-153 -40t-149 35.5t-81 104.5l73 35q18 -52 60.5 -77t97.5 -25t92 21.5t37 64.5q0 40 -32.5 59.5
t-101.5 36.5q-34 8 -55.5 14.5t-54.5 20.5t-52 29.5t-34 41.5t-15 57q1 76 61.5 116t146.5 40q82 0 138 -35t78 -93z" />
    <glyph glyph-name="t" unicode="t" horiz-adv-x="376" 
d="M297 77h49v-77h-79q-161 0 -161 164v316h-77v70h77v121l89 18v-139h136v-70h-136v-287q0 -61 23 -88.5t79 -27.5z" />
    <glyph glyph-name="u" unicode="u" horiz-adv-x="617" 
d="M459 226v324h89l-1 -327q0 -103 -65.5 -167t-172.5 -64q-108 0 -174 64t-66 167v327h89v-324q0 -69 41.5 -112.5t109.5 -43.5q67 0 108.5 43.5t41.5 112.5z" />
    <glyph glyph-name="v" unicode="v" horiz-adv-x="537" 
d="M269 132l159 418h93v-4l-216 -546h-73l-215 546v4h92z" />
    <glyph glyph-name="w" unicode="w" horiz-adv-x="826" 
d="M573 148l142 402h92v-4l-200 -546h-53l-141 395l-141 -395h-53l-200 546v4h92l142 -402l139 402h42z" />
    <glyph glyph-name="x" unicode="x" horiz-adv-x="541" 
d="M539 3v-3h-101l-167 221l-168 -221h-100v3l211 282l-194 262v3h101l150 -207l150 207h100v-3l-194 -262z" />
    <glyph glyph-name="y" unicode="y" horiz-adv-x="520" 
d="M266 130l146 420h92v-4l-219 -617q-41 -116 -97.5 -146.5t-153.5 -4.5l19 73q61 -13 93.5 5t55.5 85l22 65l-205 540v4h95z" />
    <glyph glyph-name="z" unicode="z" horiz-adv-x="503" 
d="M41 550h427v-8l-309 -467h312v-75h-441v8l309 467h-298v75z" />
    <glyph glyph-name="braceleft" unicode="{" horiz-adv-x="399" 
d="M218 193v-92q0 -103 34 -147t113 -48l-7 -67q-118 -2 -176 60.5t-58 201.5v79q0 43 -21.5 62.5t-75.5 24.5v66q53 5 75 25.5t22 62.5v92q0 134 57.5 191.5t176.5 55.5l7 -67q-80 -4 -113.5 -42t-33.5 -136v-107q0 -93 -79 -108q79 -17 79 -107z" />
    <glyph glyph-name="bar" unicode="|" horiz-adv-x="271" 
d="M91 -200v950h89v-950h-89z" />
    <glyph glyph-name="braceright" unicode="}" horiz-adv-x="399" 
d="M181 101v92q0 90 79 107q-79 15 -79 108v107q0 98 -33.5 136t-113.5 42l7 67q119 2 176.5 -55.5t57.5 -191.5v-92q0 -42 22 -62.5t75 -25.5v-66q-54 -5 -75.5 -24.5t-21.5 -62.5v-79q0 -139 -58 -201.5t-176 -60.5l-7 67q79 4 113 48t34 147z" />
    <glyph glyph-name="asciitilde" unicode="~" horiz-adv-x="450" 
d="M381 352v-81q-38 -39 -86 -39q-35 0 -73 32.5t-67 32.5q-45 0 -86 -43v80q39 40 86 40q35 0 73 -32.5t67 -32.5q48 0 86 43z" />
    <glyph glyph-name="exclamdown" unicode="&#xa1;" horiz-adv-x="307" 
d="M153 557q29 0 49 -20t20 -49t-20 -49.5t-49 -20.5t-49 20.5t-20 49.5q0 28 20 48.5t49 20.5zM99 -149l12 487h84l13 -487h-109z" />
    <glyph glyph-name="cent" unicode="&#xa2;" horiz-adv-x="592" 
d="M315 163q51 0 90.5 26t61.5 69l64 -33q-23 -51 -70 -86.5t-107 -45.5v-93h-61v91q-103 8 -167 79.5t-64 180.5t64 180.5t167 79.5v89h61v-91q60 -10 107 -45t70 -86l-64 -33q-23 43 -62.5 69t-89.5 26q-77 0 -126 -53t-49 -136t49 -135.5t126 -52.5z" />
    <glyph glyph-name="sterling" unicode="&#xa3;" horiz-adv-x="657" 
d="M568 114l38 -72q-69 -36 -127.5 -45t-152.5 3q-77 12 -135 11.5t-110 -17.5l-22 83q105 63 87 215h-97v70h86l-9 54q-20 134 42 209t191 75q102 0 159 -48t77 -127l-88 -26q-12 55 -49.5 89.5t-98.5 34.5q-79 0 -117.5 -54.5t-22.5 -152.5l9 -54h172v-70h-161
q13 -136 -58 -207q51 11 163 -4q86 -9 125.5 -2.5t98.5 35.5z" />
    <glyph glyph-name="currency" unicode="&#xa4;" horiz-adv-x="608" 
d="M514 350q0 -64 -35 -116l87 -87l-57 -58l-87 87q-52 -36 -118 -36q-65 0 -117 36l-87 -87l-58 58l87 87q-34 53 -34 116t34 116l-87 87l58 58l87 -87q52 36 117 36q66 0 118 -36l87 87l57 -58l-87 -87q35 -53 35 -116zM304 208q59 0 100.5 41.5t41.5 100.5t-41.5 100.5
t-100.5 41.5t-100 -41.5t-41 -100.5t41 -100.5t100 -41.5z" />
    <glyph glyph-name="yen" unicode="&#xa5;" horiz-adv-x="649" 
d="M520 700h104v-5l-228 -368h151v-65h-177v-65h177v-65h-177v-132h-94v132h-169v65h169v65h-169v65h143l-226 368v5h105l194 -324z" />
    <glyph glyph-name="brokenbar" unicode="&#xa6;" horiz-adv-x="271" 
d="M180 390h-89v360h89v-360zM180 -200h-89v360h89v-360z" />
    <glyph glyph-name="section" unicode="&#xa7;" horiz-adv-x="595" 
d="M263 507l180 -131q48 -35 76.5 -75.5t36 -83t-17.5 -85t-82 -76.5q29 -76 -19.5 -143t-135.5 -67q-184 0 -220 166l70 21q30 -116 138 -116q50 0 77 29t19 71t-53 74l-179 131q-65 47 -95 101.5t-12 114t93 104.5q-29 76 20 143t136 67q182 0 220 -167l-71 -21
q-30 117 -138 117q-50 0 -77 -29t-19 -71t53 -74zM420 113q131 95 -44 222l-168 121q-18 13 -33 29q-131 -95 44 -222l168 -121q18 -13 33 -29z" />
    <glyph glyph-name="dieresis" unicode="&#xa8;" horiz-adv-x="474" 
d="M161 603q-17 0 -29.5 12t-12.5 30q0 17 12.5 29.5t29.5 12.5q18 0 30 -12.5t12 -29.5q0 -18 -12 -30t-30 -12zM294 603q-18 0 -30 12t-12 30q0 17 12 29.5t30 12.5q17 0 29.5 -12.5t12.5 -29.5q0 -18 -12.5 -30t-29.5 -12z" />
    <glyph glyph-name="copyright" unicode="&#xa9;" horiz-adv-x="805" 
d="M402 -5q-149 0 -251.5 102t-102.5 252t102.5 252t251.5 102q150 0 252.5 -102t102.5 -252t-102.5 -252t-252.5 -102zM402 58q122 0 206 84.5t84 206.5t-84 206.5t-206 84.5q-121 0 -205 -84.5t-84 -206.5t84 -206.5t205 -84.5zM506 288l52 -29q-18 -41 -59.5 -65.5
t-92.5 -24.5q-78 1 -126.5 51t-48.5 129q0 78 48.5 128t126.5 51q50 1 92 -24t60 -67l-52 -31q-13 27 -40.5 43.5t-59.5 16.5q-50 0 -81.5 -33t-31.5 -86q0 -52 31.5 -85t81.5 -33q33 0 60.5 16.5t39.5 42.5z" />
    <glyph glyph-name="ordfeminine" unicode="&#xaa;" horiz-adv-x="425" 
d="M207 708q86 0 133 -44.5t47 -136.5v-234h-67v41q-46 -48 -127 -48q-74 0 -121.5 39.5t-47.5 101.5t47.5 101.5t121.5 39.5q81 0 127 -48v7q0 63 -32 95.5t-91 32.5q-75 0 -134 -42l-22 45q71 50 166 50zM207 333q52 0 83.5 26.5t31.5 68.5t-32 68t-83 26
q-52 0 -84.5 -26.5t-32.5 -67.5q0 -42 32.5 -68.5t84.5 -26.5zM387 186h-347v44h347v-44z" />
    <glyph glyph-name="guillemotleft" unicode="&#xab;" horiz-adv-x="561" 
d="M21 273v5l243 194l34 -35l-155 -162l155 -162l-34 -35zM232 273v5l243 194l34 -35l-154 -162l154 -162l-34 -35z" />
    <glyph glyph-name="logicalnot" unicode="&#xac;" horiz-adv-x="527" 
d="M69 261v78h390v-221h-86v143h-304z" />
    <glyph glyph-name="uni00AD" unicode="&#xad;" horiz-adv-x="512" 
d="M444 261h-375v78h375v-78z" />
    <glyph glyph-name="registered" unicode="&#xae;" horiz-adv-x="526" 
d="M263 703q90 0 152.5 -62t62.5 -153q0 -90 -62.5 -152t-152.5 -62t-152.5 62t-62.5 152q0 91 62.5 153t152.5 62zM263 314q73 0 123 50.5t50 123.5q0 74 -50 124.5t-123 50.5t-123 -51t-50 -124t50 -123.5t123 -50.5zM351 535q0 -53 -50 -63l45 -86h-35l-42 84h-40v-84
h-36v211h86q33 0 52.5 -16.5t19.5 -45.5zM229 498h46q41 0 41 36q0 33 -41 33h-46v-69z" />
    <glyph glyph-name="macron" unicode="&#xaf;" horiz-adv-x="450" 
d="M317 613h-198v56h198v-56z" />
    <glyph glyph-name="degree" unicode="&#xb0;" horiz-adv-x="368" 
d="M184 423q-60 0 -100.5 41t-40.5 102q0 59 40.5 100t100.5 41t100.5 -41t40.5 -100q0 -61 -40.5 -102t-100.5 -41zM184 488q32 0 54 22.5t22 55.5q0 32 -22 54t-54 22t-54 -22t-22 -54q0 -33 22 -55.5t54 -22.5z" />
    <glyph glyph-name="plusminus" unicode="&#xb1;" horiz-adv-x="514" 
d="M294 607v-154h155v-73h-155v-155h-72v155h-155v73h155v154h72zM447 93h-379v72h379v-72z" />
    <glyph glyph-name="uni00B2" unicode="&#xb2;" horiz-adv-x="381" 
d="M87 554l-64 12q18 138 168 138q70 0 111.5 -34t41.5 -87q0 -41 -27 -80.5t-97 -97.5l-64 -52h197v-55h-326v11l127 116q76 67 99.5 95.5t23.5 59.5q0 30 -23 48.5t-63 18.5q-90 0 -104 -93z" />
    <glyph glyph-name="uni00B3" unicode="&#xb3;" horiz-adv-x="375" 
d="M263 512q37 -8 61.5 -34t24.5 -66q0 -55 -44 -87.5t-124 -32.5q-60 0 -104 21t-63 50l46 34q40 -50 125 -50q46 0 73 19.5t27 54.5q0 65 -109 65h-52v47h40q45 0 72 15.5t27 42.5q0 58 -87 58q-74 0 -111 -51l-40 33q48 74 151 74q73 0 112.5 -29t39.5 -77q0 -61 -65 -87
z" />
    <glyph glyph-name="acute" unicode="&#xb4;" horiz-adv-x="486" 
d="M156 600l81 116h105l-109 -116h-77z" />
    <glyph glyph-name="uni00B5" unicode="&#xb5;" horiz-adv-x="699" 
d="M574 77h94v-77h-150v62q-57 -68 -157 -68q-134 0 -196 109v-303h-89v750h89v-300q0 -82 44.5 -132t117.5 -50q72 0 115 49.5t43 132.5v300h89v-473z" />
    <glyph glyph-name="paragraph" unicode="&#xb6;" horiz-adv-x="600" 
d="M314 -1h-80v356q-86 2 -138.5 49.5t-52.5 123.5q0 77 52.5 124.5t138.5 47.5h275v-701h-80v628h-115v-628z" />
    <glyph glyph-name="periodcentered" unicode="&#xb7;" horiz-adv-x="275" 
d="M138 237q-29 0 -49 20t-20 49t20 49.5t49 20.5t49 -20.5t20 -49.5q0 -28 -20.5 -48.5t-48.5 -20.5z" />
    <glyph glyph-name="cedilla" unicode="&#xb8;" horiz-adv-x="435" 
d="M249 5l-22 -63q59 -12 59 -61q0 -30 -22.5 -50t-63.5 -20q-52 0 -102 31l18 35q47 -26 79 -26q37 0 37 32t-58 42l25 86h50v-6z" />
    <glyph glyph-name="uni00B9" unicode="&#xb9;" horiz-adv-x="290" 
d="M208 699v-345h81v-55h-253v55h105v250l-85 -86l-38 40l145 141h45z" />
    <glyph glyph-name="ordmasculine" unicode="&#xba;" horiz-adv-x="459" 
d="M230 284q-90 0 -148 60t-58 153q0 92 58 152t148 60q89 0 147 -60t58 -152q0 -93 -58 -153t-147 -60zM230 343q61 0 101 43.5t40 110.5q0 66 -40 109.5t-101 43.5t-101.5 -43.5t-40.5 -109.5q0 -67 40 -110.5t102 -43.5zM52 186v44h356v-44h-356z" />
    <glyph glyph-name="guillemotright" unicode="&#xbb;" horiz-adv-x="561" 
d="M86 472l243 -194v-5l-243 -195l-34 35l154 162l-154 162zM297 472l243 -194v-5l-243 -195l-34 35l154 162l-154 162z" />
    <glyph glyph-name="onequarter" unicode="&#xbc;" horiz-adv-x="767" 
d="M232 699h44l1 -345h81v-55h-253v55h105v250l-85 -86l-39 40zM691 698v-5l-173 -220h-79v8l164 217h88zM670 122h52v-53h-52v-71h-64v71h-230v49l236 280h58v-276zM608 314h-1l-161 -192h162v192zM71 -2v5l173 219h79v-7l-164 -217h-88z" />
    <glyph glyph-name="onehalf" unicode="&#xbd;" horiz-adv-x="784" 
d="M224 700h45v-345h81v-55h-253v55h105v250l-85 -86l-38 41zM692 700v-5l-172 -219h-80v7l165 217h87zM616 107l-64 -52h197v-55h-325v11l126 116q76 67 99.5 95.5t23.5 59.5q0 30 -23 48.5t-62 18.5q-91 0 -105 -93l-64 12q9 71 54 104.5t115 33.5q69 0 110.5 -34
t41.5 -87q0 -41 -27 -80.5t-97 -97.5zM73 0v5l172 219h80v-7l-165 -217h-87z" />
    <glyph glyph-name="threequarters" unicode="&#xbe;" horiz-adv-x="821" 
d="M326 512q37 -8 61.5 -34t24.5 -66q0 -55 -44 -87.5t-124 -32.5q-60 0 -103.5 21t-63.5 50l46 34q40 -50 126 -50q46 0 72.5 19.5t26.5 54.5q0 65 -108 65h-53v47h40q45 0 72.5 15.5t27.5 42.5q0 58 -88 58q-73 0 -111 -51l-40 33q49 74 151 74q73 0 112.5 -29t39.5 -77
q0 -61 -65 -87zM764 700v-5l-173 -219h-79v7l165 217h87zM721 124h51v-53h-51v-71h-64v71h-231v50l237 279h58v-276zM658 317h-1l-161 -193h162v193zM144 0v5l173 219h79v-7l-164 -217h-88z" />
    <glyph glyph-name="questiondown" unicode="&#xbf;" horiz-adv-x="497" 
d="M259 558q26 0 44 -18.5t18 -44.5t-18 -44.5t-44 -18.5t-44.5 18.5t-18.5 44.5t18.5 44.5t44.5 18.5zM216 348h86q1 -44 -13 -78.5t-36.5 -54.5t-49 -41t-49 -37.5t-38 -43.5t-15.5 -60q0 -53 35.5 -82t98.5 -29q136 0 170 145l83 -21q-19 -99 -88 -153t-175 -52
q-103 2 -160 48.5t-57 133.5q0 51 22 90t53 63.5t62 47t51.5 53.5t19.5 71z" />
    <glyph glyph-name="Agrave" unicode="&#xc0;" horiz-adv-x="672" 
d="M309 866l81 -116h-77l-110 116h106zM301 700h70l302 -694v-6h-97l-67 160h-346l-67 -160h-97v6zM336 572l-141 -337h282z" />
    <glyph glyph-name="Aacute" unicode="&#xc1;" horiz-adv-x="672" 
d="M363 866h106l-110 -116h-77zM301 700h70l302 -694v-6h-97l-67 160h-346l-67 -160h-97v6zM336 572l-141 -337h282z" />
    <glyph glyph-name="Acircumflex" unicode="&#xc2;" horiz-adv-x="672" 
d="M400 742l-64 66l-64 -66l-44 41l108 99l108 -99zM301 700h70l302 -694v-6h-97l-67 160h-346l-67 -160h-97v6zM336 572l-141 -337h282z" />
    <glyph glyph-name="Atilde" unicode="&#xc3;" horiz-adv-x="672" 
d="M297 796q-25 0 -46 -31l-31 32q34 51 79 51q25 0 46 -24t33 -24q24 0 44 29l32 -32q-30 -50 -77 -50q-20 0 -33.5 12.5t-24 24.5t-22.5 12zM301 700h70l302 -694v-6h-97l-67 160h-346l-67 -160h-97v6zM336 572l-141 -337h282z" />
    <glyph glyph-name="Adieresis" unicode="&#xc4;" horiz-adv-x="672" 
d="M270 753q-17 0 -29.5 12t-12.5 30q0 17 12.5 29.5t29.5 12.5q18 0 30 -12.5t12 -29.5q0 -18 -12 -30t-30 -12zM403 753q-18 0 -30 12t-12 30q0 17 12 29.5t30 12.5q17 0 29.5 -12.5t12.5 -29.5q0 -18 -12.5 -30t-29.5 -12zM301 700h70l302 -694v-6h-97l-67 160h-346
l-67 -160h-97v6zM336 572l-141 -337h282z" />
    <glyph glyph-name="Aring" unicode="&#xc5;" horiz-adv-x="672" 
d="M336 741q-38 0 -63.5 25.5t-25.5 62.5t25.5 62.5t63.5 25.5t64 -25.5t26 -62.5t-26 -62.5t-64 -25.5zM336 878q-20 0 -33.5 -14t-13.5 -35t13.5 -35.5t33.5 -14.5t34 14.5t14 35.5t-14 35t-34 14zM301 700h70l302 -694v-6h-97l-67 160h-346l-67 -160h-97v6zM336 572
l-141 -337h282z" />
    <glyph glyph-name="AE" unicode="&#xc6;" horiz-adv-x="1080" 
d="M1024 700v-80h-388v-220h342v-77h-342v-243h388v-80h-482v147h-343l-116 -147h-107v6l546 694h502zM542 584l-285 -363h285v363z" />
    <glyph glyph-name="Ccedilla" unicode="&#xc7;" horiz-adv-x="686" 
d="M405 73q57 0 109.5 21.5t78.5 53.5l57 -60q-73 -90 -225 -98l-20 -58q59 -12 59 -61q0 -30 -22.5 -50t-63.5 -20q-52 0 -102 31l18 35q47 -26 79 -26q37 0 37 32t-58 42l22 75q-141 10 -233 111.5t-92 248.5q0 154 100.5 257.5t250.5 103.5q81 0 146.5 -26t103.5 -73
l-57 -60q-26 32 -78.5 53.5t-109.5 21.5q-113 0 -189 -79t-76 -198t76 -198t189 -79z" />
    <glyph glyph-name="Egrave" unicode="&#xc8;" horiz-adv-x="629" 
d="M210 866h106l81 -116h-77zM573 700v-80h-388v-220h342v-77h-342v-243h388v-80h-482v700h482z" />
    <glyph glyph-name="Eacute" unicode="&#xc9;" horiz-adv-x="629" 
d="M288 750l81 116h106l-110 -116h-77zM573 700v-80h-388v-220h342v-77h-342v-243h388v-80h-482v700h482z" />
    <glyph glyph-name="Ecircumflex" unicode="&#xca;" horiz-adv-x="629" 
d="M234 783l108 99l108 -99l-44 -41l-64 66l-64 -66zM573 700v-80h-388v-220h342v-77h-342v-243h388v-80h-482v700h482z" />
    <glyph glyph-name="Edieresis" unicode="&#xcb;" horiz-adv-x="629" 
d="M276 753q-17 0 -29.5 12t-12.5 30q0 17 12.5 29.5t29.5 12.5q18 0 30 -12.5t12 -29.5q0 -18 -12 -30t-30 -12zM409 753q-18 0 -30 12t-12 30q0 17 12 29.5t30 12.5q17 0 29.5 -12.5t12.5 -29.5q0 -18 -12.5 -30t-29.5 -12zM573 700v-80h-388v-220h342v-77h-342v-243h388
v-80h-482v700h482z" />
    <glyph glyph-name="Igrave" unicode="&#xcc;" horiz-adv-x="276" 
d="M5 866h106l81 -116h-77zM91 0v700h94v-700h-94z" />
    <glyph glyph-name="Iacute" unicode="&#xcd;" horiz-adv-x="276" 
d="M84 750l81 116h106l-110 -116h-77zM91 0v700h94v-700h-94z" />
    <glyph glyph-name="Icircumflex" unicode="&#xce;" horiz-adv-x="276" 
d="M30 783l108 99l108 -99l-44 -41l-64 66l-64 -66zM91 0v700h94v-700h-94z" />
    <glyph glyph-name="Idieresis" unicode="&#xcf;" horiz-adv-x="276" 
d="M71 753q-17 0 -29.5 12t-12.5 30q0 17 12.5 29.5t29.5 12.5q18 0 30 -12.5t12 -29.5q0 -18 -12 -30t-30 -12zM204 753q-18 0 -30 12t-12 30q0 17 12 29.5t30 12.5q17 0 29.5 -12.5t12.5 -29.5q0 -18 -12.5 -30t-29.5 -12zM91 0v700h94v-700h-94z" />
    <glyph glyph-name="Eth" unicode="&#xd0;" horiz-adv-x="735" 
d="M91 700h226q176 0 272.5 -91.5t96.5 -258.5t-96.5 -258.5t-272.5 -91.5h-226v315h-74v70h74v315zM185 80h136q129 0 200 70.5t71 199.5t-71 199.5t-200 70.5h-136v-235h164v-70h-164v-235z" />
    <glyph glyph-name="Ntilde" unicode="&#xd1;" horiz-adv-x="774" 
d="M312 765l-31 32q34 51 79 51q25 0 46 -24t33 -24q24 0 44 29l32 -32q-30 -50 -77 -50q-26 0 -46 24.5t-34 24.5q-25 0 -46 -31zM683 700v-700h-68l-432 533v-533h-92v700h68l432 -533v533h92z" />
    <glyph glyph-name="Ograve" unicode="&#xd2;" horiz-adv-x="812" 
d="M274 877h106l81 -116h-77zM406 -11q-154 0 -255.5 102.5t-101.5 258.5t101.5 258.5t255.5 102.5t255.5 -102.5t101.5 -258.5t-101.5 -258.5t-255.5 -102.5zM406 77q114 0 188.5 77.5t74.5 195.5t-74.5 195.5t-188.5 77.5t-188.5 -77.5t-74.5 -195.5t74.5 -195.5
t188.5 -77.5z" />
    <glyph glyph-name="Oacute" unicode="&#xd3;" horiz-adv-x="812" 
d="M352 761l81 116h106l-110 -116h-77zM406 -11q-154 0 -255.5 102.5t-101.5 258.5t101.5 258.5t255.5 102.5t255.5 -102.5t101.5 -258.5t-101.5 -258.5t-255.5 -102.5zM406 77q114 0 188.5 77.5t74.5 195.5t-74.5 195.5t-188.5 77.5t-188.5 -77.5t-74.5 -195.5t74.5 -195.5
t188.5 -77.5z" />
    <glyph glyph-name="Ocircumflex" unicode="&#xd4;" horiz-adv-x="812" 
d="M298 794l108 99l108 -99l-44 -41l-64 66l-64 -66zM406 -11q-154 0 -255.5 102.5t-101.5 258.5t101.5 258.5t255.5 102.5t255.5 -102.5t101.5 -258.5t-101.5 -258.5t-255.5 -102.5zM406 77q114 0 188.5 77.5t74.5 195.5t-74.5 195.5t-188.5 77.5t-188.5 -77.5
t-74.5 -195.5t74.5 -195.5t188.5 -77.5z" />
    <glyph glyph-name="Otilde" unicode="&#xd5;" horiz-adv-x="812" 
d="M321 776l-31 32q34 51 79 51q25 0 46 -24t33 -24q24 0 44 29l32 -32q-30 -50 -77 -50q-16 0 -28 7.5t-18 17t-15 17t-19 7.5q-25 0 -46 -31zM406 -11q-154 0 -255.5 102.5t-101.5 258.5t101.5 258.5t255.5 102.5t255.5 -102.5t101.5 -258.5t-101.5 -258.5t-255.5 -102.5z
M406 77q114 0 188.5 77.5t74.5 195.5t-74.5 195.5t-188.5 77.5t-188.5 -77.5t-74.5 -195.5t74.5 -195.5t188.5 -77.5z" />
    <glyph glyph-name="Odieresis" unicode="&#xd6;" horiz-adv-x="812" 
d="M340 764q-17 0 -29.5 12t-12.5 30q0 17 12.5 29.5t29.5 12.5q18 0 30 -12.5t12 -29.5q0 -18 -12 -30t-30 -12zM473 764q-18 0 -30 12t-12 30q0 17 12 29.5t30 12.5q17 0 29.5 -12.5t12.5 -29.5q0 -18 -12.5 -30t-29.5 -12zM406 -11q-154 0 -255.5 102.5t-101.5 258.5
t101.5 258.5t255.5 102.5t255.5 -102.5t101.5 -258.5t-101.5 -258.5t-255.5 -102.5zM406 77q114 0 188.5 77.5t74.5 195.5t-74.5 195.5t-188.5 77.5t-188.5 -77.5t-74.5 -195.5t74.5 -195.5t188.5 -77.5z" />
    <glyph glyph-name="multiply" unicode="&#xd7;" horiz-adv-x="460" 
d="M347 471l55 -55l-116 -116l116 -117l-55 -55l-116 117l-117 -117l-55 55l117 117l-117 116l55 55l117 -116z" />
    <glyph glyph-name="Oslash" unicode="&#xd8;" horiz-adv-x="812" 
d="M755 700l-86 -100q94 -100 94 -250q0 -156 -101.5 -258.5t-255.5 -102.5q-118 0 -209 63l-45 -52h-95l86 100q-94 100 -94 250q0 156 101.5 258.5t255.5 102.5q120 0 209 -64l46 53h94zM143 350q0 -106 61 -180l352 408q-65 45 -150 45q-114 0 -188.5 -77.5t-74.5 -195.5
zM406 77q114 0 188.5 77.5t74.5 195.5q0 106 -60 180l-352 -409q64 -44 149 -44z" />
    <glyph glyph-name="Ugrave" unicode="&#xd9;" horiz-adv-x="759" 
d="M247 866h106l81 -116h-77zM582 288v412h94v-418q0 -136 -79 -214.5t-217 -78.5t-216.5 78.5t-79.5 214.5l-1 418h94v-412q0 -99 54 -155.5t149 -56.5q94 0 148 56.5t54 155.5z" />
    <glyph glyph-name="Uacute" unicode="&#xda;" horiz-adv-x="759" 
d="M325 750l81 116h106l-110 -116h-77zM582 288v412h94v-418q0 -136 -79 -214.5t-217 -78.5t-216.5 78.5t-79.5 214.5l-1 418h94v-412q0 -99 54 -155.5t149 -56.5q94 0 148 56.5t54 155.5z" />
    <glyph glyph-name="Ucircumflex" unicode="&#xdb;" horiz-adv-x="759" 
d="M271 783l108 99l108 -99l-44 -41l-64 66l-64 -66zM582 288v412h94v-418q0 -136 -79 -214.5t-217 -78.5t-216.5 78.5t-79.5 214.5l-1 418h94v-412q0 -99 54 -155.5t149 -56.5q94 0 148 56.5t54 155.5z" />
    <glyph glyph-name="Udieresis" unicode="&#xdc;" horiz-adv-x="759" 
d="M313 753q-17 0 -29.5 12t-12.5 30q0 17 12.5 29.5t29.5 12.5q18 0 30 -12.5t12 -29.5q0 -18 -12 -30t-30 -12zM446 753q-18 0 -30 12t-12 30q0 17 12 29.5t30 12.5q17 0 29.5 -12.5t12.5 -29.5q0 -18 -12.5 -30t-29.5 -12zM582 288v412h94v-418q0 -136 -79 -214.5
t-217 -78.5t-216.5 78.5t-79.5 214.5l-1 418h94v-412q0 -99 54 -155.5t149 -56.5q94 0 148 56.5t54 155.5z" />
    <glyph glyph-name="Yacute" unicode="&#xdd;" horiz-adv-x="625" 
d="M258 750l81 116h106l-110 -116h-77zM311 376l197 324h104v-5l-254 -410v-285h-94v285l-252 410v5h105z" />
    <glyph glyph-name="Thorn" unicode="&#xde;" horiz-adv-x="606" 
d="M185 557h144q108 0 168 -54t60 -153t-60 -153t-168 -54h-144v-143h-94v700h94v-143zM185 223h138q67 0 103.5 33t36.5 94t-36.5 94t-103.5 33h-138v-254z" />
    <glyph glyph-name="germandbls" unicode="&#xdf;" horiz-adv-x="591" 
d="M389 387q72 -12 116.5 -62.5t44.5 -128.5q0 -85 -56 -142t-141 -57q-66 0 -114 14l15 74q38 -9 79 -9q57 0 93 37t36 94q0 58 -44 93.5t-114 35.5h-40v74h19q46 0 76 28t30 73q0 49 -30 80.5t-77 31.5q-54 0 -86 -35.5t-32 -98.5v-489h-88v484q0 103 54.5 161.5
t149.5 58.5q89 0 142.5 -50t53.5 -131q0 -50 -24 -86.5t-63 -49.5z" />
    <glyph glyph-name="agrave" unicode="&#xe0;" horiz-adv-x="593" 
d="M273 727l81 -116h-77l-110 116h106zM288 561q116 0 179.5 -60.5t63.5 -184.5v-316h-91v56q-61 -66 -171 -66q-100 0 -164 53.5t-64 137.5t64 137.5t164 53.5q110 0 171 -66v10q0 86 -43 129.5t-123 43.5q-100 0 -181 -56l-30 61q96 67 225 67zM287 54q70 0 113.5 36
t43.5 92t-43.5 92t-113.5 36t-113.5 -36t-43.5 -92t43.5 -92t113.5 -36z" />
    <glyph glyph-name="aacute" unicode="&#xe1;" horiz-adv-x="593" 
d="M326 727h106l-110 -116h-77zM288 561q116 0 179.5 -60.5t63.5 -184.5v-316h-91v56q-61 -66 -171 -66q-100 0 -164 53.5t-64 137.5t64 137.5t164 53.5q110 0 171 -66v10q0 86 -43 129.5t-123 43.5q-100 0 -181 -56l-30 61q96 67 225 67zM287 54q70 0 113.5 36t43.5 92
t-43.5 92t-113.5 36t-113.5 -36t-43.5 -92t43.5 -92t113.5 -36z" />
    <glyph glyph-name="acircumflex" unicode="&#xe2;" horiz-adv-x="593" 
d="M363 603l-64 66l-64 -66l-44 41l108 99l108 -99zM288 561q116 0 179.5 -60.5t63.5 -184.5v-316h-91v56q-61 -66 -171 -66q-100 0 -164 53.5t-64 137.5t64 137.5t164 53.5q110 0 171 -66v10q0 86 -43 129.5t-123 43.5q-100 0 -181 -56l-30 61q96 67 225 67zM287 54
q70 0 113.5 36t43.5 92t-43.5 92t-113.5 36t-113.5 -36t-43.5 -92t43.5 -92t113.5 -36z" />
    <glyph glyph-name="atilde" unicode="&#xe3;" horiz-adv-x="593" 
d="M260 657q-25 0 -46 -31l-31 32q34 51 79 51q25 0 46 -24t33 -24q24 0 44 29l32 -32q-30 -50 -77 -50q-26 0 -46 24.5t-34 24.5zM288 561q116 0 179.5 -60.5t63.5 -184.5v-316h-91v56q-61 -66 -171 -66q-100 0 -164 53.5t-64 137.5t64 137.5t164 53.5q110 0 171 -66v10
q0 86 -43 129.5t-123 43.5q-100 0 -181 -56l-30 61q96 67 225 67zM287 54q70 0 113.5 36t43.5 92t-43.5 92t-113.5 36t-113.5 -36t-43.5 -92t43.5 -92t113.5 -36z" />
    <glyph glyph-name="adieresis" unicode="&#xe4;" horiz-adv-x="593" 
d="M233 614q-17 0 -29.5 12t-12.5 30q0 17 12.5 29.5t29.5 12.5q18 0 30 -12.5t12 -29.5q0 -18 -12 -30t-30 -12zM366 614q-18 0 -30 12t-12 30q0 17 12 29.5t30 12.5q17 0 29.5 -12.5t12.5 -29.5q0 -18 -12.5 -30t-29.5 -12zM288 561q116 0 179.5 -60.5t63.5 -184.5v-316
h-91v56q-61 -66 -171 -66q-100 0 -164 53.5t-64 137.5t64 137.5t164 53.5q110 0 171 -66v10q0 86 -43 129.5t-123 43.5q-100 0 -181 -56l-30 61q96 67 225 67zM287 54q70 0 113.5 36t43.5 92t-43.5 92t-113.5 36t-113.5 -36t-43.5 -92t43.5 -92t113.5 -36z" />
    <glyph glyph-name="aring" unicode="&#xe5;" horiz-adv-x="593" 
d="M299 602q-38 0 -63.5 25.5t-25.5 62.5t25.5 62.5t63.5 25.5t64 -25.5t26 -62.5t-26 -62.5t-64 -25.5zM299 739q-20 0 -33.5 -14t-13.5 -35t13.5 -35.5t33.5 -14.5t34 14.5t14 35.5t-14 35t-34 14zM288 561q116 0 179.5 -60.5t63.5 -184.5v-316h-91v56q-61 -66 -171 -66
q-100 0 -164 53.5t-64 137.5t64 137.5t164 53.5q110 0 171 -66v10q0 86 -43 129.5t-123 43.5q-100 0 -181 -56l-30 61q96 67 225 67zM287 54q70 0 113.5 36t43.5 92t-43.5 92t-113.5 36t-113.5 -36t-43.5 -92t43.5 -92t113.5 -36z" />
    <glyph glyph-name="ae" unicode="&#xe6;" horiz-adv-x="1034" 
d="M724 559q133 0 206.5 -97t59.5 -223h-454q11 -76 62 -123t126 -47q96 0 152 79l68 -47q-80 -110 -220 -110q-116 0 -193 79v-70h-91v56q-61 -66 -171 -66q-100 0 -164 53.5t-64 137.5t64 137.5t164 53.5q110 0 171 -66v10q0 86 -43 129.5t-123 43.5q-100 0 -181 -56
l-30 61q96 67 225 67q161 0 216 -112q37 52 94 81t126 29zM724 480q-76 0 -128 -48.5t-61 -125.5h374q-7 73 -55.5 123.5t-129.5 50.5zM287 54q70 0 113.5 36t43.5 92t-43.5 92t-113.5 36t-113.5 -36t-43.5 -92t43.5 -92t113.5 -36z" />
    <glyph glyph-name="ccedilla" unicode="&#xe7;" horiz-adv-x="595" 
d="M317 69q56 0 99.5 28.5t66.5 76.5l71 -37q-27 -59 -81.5 -98.5t-123.5 -46.5l-21 -60q59 -12 59 -61q0 -30 -22.5 -50t-63.5 -20q-52 0 -102 31l18 35q47 -26 79 -26q37 0 37 32t-58 42l22 76q-114 7 -185 85.5t-71 198.5q0 125 77.5 205t198.5 80q80 0 143.5 -40.5
t93.5 -106.5l-71 -36q-25 47 -68 75.5t-98 28.5q-84 0 -137.5 -58t-53.5 -148t53.5 -148t137.5 -58z" />
    <glyph glyph-name="egrave" unicode="&#xe8;" horiz-adv-x="624" 
d="M288 725l81 -116h-77l-110 116h106zM314 559q133 0 207 -97t60 -223h-455q11 -76 62 -123t126 -47q97 0 152 79l68 -47q-80 -110 -220 -110q-118 0 -195.5 81.5t-77.5 202.5q0 122 77.5 203t195.5 81zM314 480q-76 0 -128 -48.5t-61 -125.5h374q-7 73 -55.5 123.5
t-129.5 50.5z" />
    <glyph glyph-name="eacute" unicode="&#xe9;" horiz-adv-x="624" 
d="M341 725h106l-110 -116h-77zM314 559q133 0 207 -97t60 -223h-455q11 -76 62 -123t126 -47q97 0 152 79l68 -47q-80 -110 -220 -110q-118 0 -195.5 81.5t-77.5 202.5q0 122 77.5 203t195.5 81zM314 480q-76 0 -128 -48.5t-61 -125.5h374q-7 73 -55.5 123.5t-129.5 50.5z
" />
    <glyph glyph-name="ecircumflex" unicode="&#xea;" horiz-adv-x="624" 
d="M378 601l-64 66l-64 -66l-44 41l108 99l108 -99zM314 559q133 0 207 -97t60 -223h-455q11 -76 62 -123t126 -47q97 0 152 79l68 -47q-80 -110 -220 -110q-118 0 -195.5 81.5t-77.5 202.5q0 122 77.5 203t195.5 81zM314 480q-76 0 -128 -48.5t-61 -125.5h374
q-7 73 -55.5 123.5t-129.5 50.5z" />
    <glyph glyph-name="edieresis" unicode="&#xeb;" horiz-adv-x="624" 
d="M248 612q-17 0 -29.5 12t-12.5 30q0 17 12.5 29.5t29.5 12.5q18 0 30 -12.5t12 -29.5q0 -18 -12 -30t-30 -12zM381 612q-18 0 -30 12t-12 30q0 17 12 29.5t30 12.5q17 0 29.5 -12.5t12.5 -29.5q0 -18 -12.5 -30t-29.5 -12zM314 559q133 0 207 -97t60 -223h-455
q11 -76 62 -123t126 -47q97 0 152 79l68 -47q-80 -110 -220 -110q-118 0 -195.5 81.5t-77.5 202.5q0 122 77.5 203t195.5 81zM314 480q-76 0 -128 -48.5t-61 -125.5h374q-7 73 -55.5 123.5t-129.5 50.5z" />
    <glyph glyph-name="igrave" unicode="&#xec;" horiz-adv-x="241" 
d="M-12 716h106l81 -116h-77zM165 0h-89v550h89v-550z" />
    <glyph glyph-name="iacute" unicode="&#xed;" horiz-adv-x="241" 
d="M66 600l81 116h106l-110 -116h-77zM165 0h-89v550h89v-550z" />
    <glyph glyph-name="icircumflex" unicode="&#xee;" horiz-adv-x="241" 
d="M12 633l108 99l108 -99l-44 -41l-64 66l-64 -66zM165 0h-89v550h89v-550z" />
    <glyph glyph-name="idieresis" unicode="&#xef;" horiz-adv-x="241" 
d="M54 603q-17 0 -29.5 12t-12.5 30q0 17 12.5 29.5t29.5 12.5q18 0 30 -12.5t12 -29.5q0 -18 -12 -30t-30 -12zM187 603q-18 0 -30 12t-12 30q0 17 12 29.5t30 12.5q17 0 29.5 -12.5t12.5 -29.5q0 -18 -12.5 -30t-29.5 -12zM165 0h-89v550h89v-550z" />
    <glyph glyph-name="eth" unicode="&#xf0;" horiz-adv-x="589" 
d="M432 697l-81 -65q93 -81 145 -187t52 -217q0 -103 -72.5 -171t-179.5 -68q-109 0 -182 67t-73 169q0 98 67.5 162.5t164.5 64.5q91 0 146 -52q-48 105 -136 179l-120 -96l-41 49l108 87q-59 38 -127 63l38 76q83 -32 157 -84l92 74zM295 70q69 0 115.5 44.5t46.5 110.5
q0 67 -47 111.5t-116 44.5t-115.5 -44.5t-46.5 -111.5q0 -66 47 -110.5t116 -44.5z" />
    <glyph glyph-name="ntilde" unicode="&#xf1;" horiz-adv-x="636" 
d="M280 646q-25 0 -46 -31l-31 32q34 51 79 51q25 0 46 -24t33 -24q24 0 44 29l32 -32q-30 -50 -77 -50q-26 0 -46 24.5t-34 24.5zM358 559q101 0 158.5 -66.5t56.5 -184.5v-308h-89l1 303q0 82 -43.5 131.5t-114.5 49.5q-73 0 -117.5 -49.5t-44.5 -131.5v-303h-89v550h89
v-100q60 109 193 109z" />
    <glyph glyph-name="ograve" unicode="&#xf2;" horiz-adv-x="637" 
d="M186 723h106l81 -116h-77zM318 -12q-121 0 -199 80.5t-78 206.5t78 206.5t199 80.5q122 0 200 -80.5t78 -206.5t-78 -206.5t-200 -80.5zM318 68q83 0 137.5 58.5t54.5 148.5t-54.5 148.5t-137.5 58.5t-137 -58.5t-54 -148.5t54 -148.5t137 -58.5z" />
    <glyph glyph-name="oacute" unicode="&#xf3;" horiz-adv-x="637" 
d="M264 607l81 116h106l-110 -116h-77zM318 -12q-121 0 -199 80.5t-78 206.5t78 206.5t199 80.5q122 0 200 -80.5t78 -206.5t-78 -206.5t-200 -80.5zM318 68q83 0 137.5 58.5t54.5 148.5t-54.5 148.5t-137.5 58.5t-137 -58.5t-54 -148.5t54 -148.5t137 -58.5z" />
    <glyph glyph-name="ocircumflex" unicode="&#xf4;" horiz-adv-x="637" 
d="M210 640l108 99l108 -99l-44 -41l-64 66l-64 -66zM318 -12q-121 0 -199 80.5t-78 206.5t78 206.5t199 80.5q122 0 200 -80.5t78 -206.5t-78 -206.5t-200 -80.5zM318 68q83 0 137.5 58.5t54.5 148.5t-54.5 148.5t-137.5 58.5t-137 -58.5t-54 -148.5t54 -148.5t137 -58.5z
" />
    <glyph glyph-name="otilde" unicode="&#xf5;" horiz-adv-x="637" 
d="M233 622l-31 32q34 51 79 51q25 0 46 -24t33 -24q24 0 44 29l32 -32q-30 -50 -77 -50q-16 0 -28 7.5t-18 17t-15 17t-19 7.5q-25 0 -46 -31zM318 -12q-121 0 -199 80.5t-78 206.5t78 206.5t199 80.5q122 0 200 -80.5t78 -206.5t-78 -206.5t-200 -80.5zM318 68
q83 0 137.5 58.5t54.5 148.5t-54.5 148.5t-137.5 58.5t-137 -58.5t-54 -148.5t54 -148.5t137 -58.5z" />
    <glyph glyph-name="odieresis" unicode="&#xf6;" horiz-adv-x="637" 
d="M252 610q-17 0 -29.5 12t-12.5 30q0 17 12.5 29.5t29.5 12.5q18 0 30 -12.5t12 -29.5q0 -18 -12 -30t-30 -12zM385 610q-18 0 -30 12t-12 30q0 17 12 29.5t30 12.5q17 0 29.5 -12.5t12.5 -29.5q0 -18 -12.5 -30t-29.5 -12zM318 -12q-121 0 -199 80.5t-78 206.5t78 206.5
t199 80.5q122 0 200 -80.5t78 -206.5t-78 -206.5t-200 -80.5zM318 68q83 0 137.5 58.5t54.5 148.5t-54.5 148.5t-137.5 58.5t-137 -58.5t-54 -148.5t54 -148.5t137 -58.5z" />
    <glyph glyph-name="divide" unicode="&#xf7;" horiz-adv-x="616" 
d="M308 443q-26 0 -43.5 18t-17.5 44q0 25 17.5 43t43.5 18t44 -17.5t18 -43.5t-18 -44t-44 -18zM546 261h-477v78h477v-78zM308 36q-26 0 -43.5 18t-17.5 43q0 26 18 44t43 18q26 0 44 -18t18 -44t-18 -43.5t-44 -17.5z" />
    <glyph glyph-name="oslash" unicode="&#xf8;" horiz-adv-x="637" 
d="M593 550l-67 -78q70 -80 70 -197q0 -126 -78 -206.5t-200 -80.5q-93 0 -165 51l-34 -39h-75l67 77q-70 81 -70 198q0 126 78 206.5t199 80.5q95 0 167 -52l34 40h74zM127 275q0 -77 41 -132l262 304q-49 35 -112 35q-83 0 -137 -58.5t-54 -148.5zM318 68q83 0 137.5 58.5
t54.5 148.5q0 77 -41 132l-261 -304q48 -35 110 -35z" />
    <glyph glyph-name="ugrave" unicode="&#xf9;" horiz-adv-x="617" 
d="M176 716h106l81 -116h-77zM459 226v324h89l-1 -327q0 -103 -65.5 -167t-172.5 -64q-108 0 -174 64t-66 167v327h89v-324q0 -69 41.5 -112.5t109.5 -43.5q67 0 108.5 43.5t41.5 112.5z" />
    <glyph glyph-name="uacute" unicode="&#xfa;" horiz-adv-x="617" 
d="M254 600l81 116h106l-110 -116h-77zM459 226v324h89l-1 -327q0 -103 -65.5 -167t-172.5 -64q-108 0 -174 64t-66 167v327h89v-324q0 -69 41.5 -112.5t109.5 -43.5q67 0 108.5 43.5t41.5 112.5z" />
    <glyph glyph-name="ucircumflex" unicode="&#xfb;" horiz-adv-x="617" 
d="M200 633l108 99l108 -99l-44 -41l-64 66l-64 -66zM459 226v324h89l-1 -327q0 -103 -65.5 -167t-172.5 -64q-108 0 -174 64t-66 167v327h89v-324q0 -69 41.5 -112.5t109.5 -43.5q67 0 108.5 43.5t41.5 112.5z" />
    <glyph glyph-name="udieresis" unicode="&#xfc;" horiz-adv-x="617" 
d="M242 603q-17 0 -29.5 12t-12.5 30q0 17 12.5 29.5t29.5 12.5q18 0 30 -12.5t12 -29.5q0 -18 -12 -30t-30 -12zM375 603q-18 0 -30 12t-12 30q0 17 12 29.5t30 12.5q17 0 29.5 -12.5t12.5 -29.5q0 -18 -12.5 -30t-29.5 -12zM459 226v324h89l-1 -327q0 -103 -65.5 -167
t-172.5 -64q-108 0 -174 64t-66 167v327h89v-324q0 -69 41.5 -112.5t109.5 -43.5q67 0 108.5 43.5t41.5 112.5z" />
    <glyph glyph-name="yacute" unicode="&#xfd;" horiz-adv-x="520" 
d="M296 726h106l-110 -116h-77zM266 130l146 420h92v-4l-219 -617q-41 -116 -97.5 -146.5t-153.5 -4.5l19 73q61 -13 93.5 5t55.5 85l22 65l-205 540v4h95z" />
    <glyph glyph-name="thorn" unicode="&#xfe;" horiz-adv-x="669" 
d="M374 558q110 0 182 -81t72 -202t-72 -202t-182 -81q-69 0 -123 31.5t-86 88.5v-312h-89v951h89v-313q32 57 86 88.5t123 31.5zM356 69q80 0 132 58.5t52 147.5t-52 147.5t-132 58.5q-82 0 -136.5 -59t-54.5 -147t54.5 -147t136.5 -59z" />
    <glyph glyph-name="ydieresis" unicode="&#xff;" horiz-adv-x="520" 
d="M203 613q-17 0 -29.5 12t-12.5 30q0 17 12.5 29.5t29.5 12.5q18 0 30 -12.5t12 -29.5q0 -18 -12 -30t-30 -12zM336 613q-18 0 -30 12t-12 30q0 17 12 29.5t30 12.5q17 0 29.5 -12.5t12.5 -29.5q0 -18 -12.5 -30t-29.5 -12zM266 130l146 420h92v-4l-219 -617
q-41 -116 -97.5 -146.5t-153.5 -4.5l19 73q61 -13 93.5 5t55.5 85l22 65l-205 540v4h95z" />
    <glyph glyph-name="Amacron" unicode="&#x100;" horiz-adv-x="672" 
d="M236 819h199v-56h-199v56zM301 700h70l302 -694v-6h-97l-67 160h-346l-67 -160h-97v6zM336 572l-141 -337h282z" />
    <glyph glyph-name="amacron" unicode="&#x101;" horiz-adv-x="593" 
d="M200 680h199v-56h-199v56zM288 561q116 0 179.5 -60.5t63.5 -184.5v-316h-91v56q-61 -66 -171 -66q-100 0 -164 53.5t-64 137.5t64 137.5t164 53.5q110 0 171 -66v10q0 86 -43 129.5t-123 43.5q-100 0 -181 -56l-30 61q96 67 225 67zM287 54q70 0 113.5 36t43.5 92
t-43.5 92t-113.5 36t-113.5 -36t-43.5 -92t43.5 -92t113.5 -36z" />
    <glyph glyph-name="Abreve" unicode="&#x102;" horiz-adv-x="672" 
d="M336 742q-43 0 -70.5 27.5t-31.5 77.5l59 8q3 -59 43 -59q18 0 30.5 15t13.5 44l59 -8q-4 -50 -31.5 -77.5t-71.5 -27.5zM301 700h70l302 -694v-6h-97l-67 160h-346l-67 -160h-97v6zM336 572l-141 -337h282z" />
    <glyph glyph-name="abreve" unicode="&#x103;" horiz-adv-x="593" 
d="M299 603q-43 0 -70.5 27.5t-31.5 77.5l59 8q3 -59 43 -59q18 0 30.5 15t13.5 44l59 -8q-4 -50 -31.5 -77.5t-71.5 -27.5zM288 561q116 0 179.5 -60.5t63.5 -184.5v-316h-91v56q-61 -66 -171 -66q-100 0 -164 53.5t-64 137.5t64 137.5t164 53.5q110 0 171 -66v10
q0 86 -43 129.5t-123 43.5q-100 0 -181 -56l-30 61q96 67 225 67zM287 54q70 0 113.5 36t43.5 92t-43.5 92t-113.5 36t-113.5 -36t-43.5 -92t43.5 -92t113.5 -36z" />
    <glyph glyph-name="Aogonek" unicode="&#x104;" horiz-adv-x="672" 
d="M714 -109l36 -15q-35 -85 -119 -85q-46 0 -74.5 27.5t-28.5 70.5q0 69 72 111h-24l-67 160h-346l-67 -160h-97v6l302 694h70l302 -694v-6h-1q-41 -17 -65 -44t-24 -57q0 -28 16.5 -44t43.5 -16q43 0 71 52zM336 572l-141 -337h282z" />
    <glyph glyph-name="aogonek" unicode="&#x105;" horiz-adv-x="593" 
d="M572 -109l36 -15q-35 -85 -119 -85q-46 0 -74.5 27.5t-28.5 70.5q0 69 72 111h-18v56q-61 -66 -171 -66q-100 0 -164 53.5t-64 137.5t64 137.5t164 53.5q110 0 171 -66v10q0 86 -43 129.5t-123 43.5q-100 0 -181 -56l-30 61q96 67 225 67q116 0 179.5 -60.5t63.5 -184.5
v-316h-1q-41 -17 -65 -44t-24 -57q0 -28 16.5 -44t43.5 -16q43 0 71 52zM287 54q70 0 113.5 36t43.5 92t-43.5 92t-113.5 36t-113.5 -36t-43.5 -92t43.5 -92t113.5 -36z" />
    <glyph glyph-name="Cacute" unicode="&#x106;" horiz-adv-x="686" 
d="M345 760l81 116h106l-110 -116h-77zM405 73q57 0 109.5 21.5t78.5 53.5l57 -60q-38 -47 -103.5 -73t-146.5 -26q-150 0 -250.5 103.5t-100.5 257.5t100.5 257.5t250.5 103.5q81 0 146.5 -26t103.5 -73l-57 -60q-26 32 -78.5 53.5t-109.5 21.5q-113 0 -189 -79t-76 -198
t76 -198t189 -79z" />
    <glyph glyph-name="cacute" unicode="&#x107;" horiz-adv-x="595" 
d="M263 610l81 116h106l-110 -116h-77zM41 275q0 125 77.5 205t198.5 80q80 0 143.5 -40.5t93.5 -106.5l-71 -36q-25 47 -68 75.5t-98 28.5q-84 0 -137.5 -58t-53.5 -148t53.5 -148t137.5 -58q56 0 99.5 28.5t66.5 76.5l71 -37q-30 -66 -93.5 -106.5t-143.5 -40.5
q-121 0 -198.5 80t-77.5 205z" />
    <glyph glyph-name="Ccircumflex" unicode="&#x108;" horiz-adv-x="686" 
d="M291 793l108 99l108 -99l-44 -41l-64 66l-64 -66zM405 73q57 0 109.5 21.5t78.5 53.5l57 -60q-38 -47 -103.5 -73t-146.5 -26q-150 0 -250.5 103.5t-100.5 257.5t100.5 257.5t250.5 103.5q81 0 146.5 -26t103.5 -73l-57 -60q-26 32 -78.5 53.5t-109.5 21.5
q-113 0 -189 -79t-76 -198t76 -198t189 -79z" />
    <glyph glyph-name="ccircumflex" unicode="&#x109;" horiz-adv-x="595" 
d="M209 643l108 99l108 -99l-44 -41l-64 66l-64 -66zM41 275q0 125 77.5 205t198.5 80q80 0 143.5 -40.5t93.5 -106.5l-71 -36q-25 47 -68 75.5t-98 28.5q-84 0 -137.5 -58t-53.5 -148t53.5 -148t137.5 -58q56 0 99.5 28.5t66.5 76.5l71 -37q-30 -66 -93.5 -106.5
t-143.5 -40.5q-121 0 -198.5 80t-77.5 205z" />
    <glyph glyph-name="Cdotaccent" unicode="&#x10a;" horiz-adv-x="686" 
d="M399 763q-17 0 -29.5 12t-12.5 30q0 17 12.5 29.5t29.5 12.5q18 0 30 -12.5t12 -29.5q0 -18 -12 -30t-30 -12zM405 73q57 0 109.5 21.5t78.5 53.5l57 -60q-38 -47 -103.5 -73t-146.5 -26q-150 0 -250.5 103.5t-100.5 257.5t100.5 257.5t250.5 103.5q81 0 146.5 -26
t103.5 -73l-57 -60q-26 32 -78.5 53.5t-109.5 21.5q-113 0 -189 -79t-76 -198t76 -198t189 -79z" />
    <glyph glyph-name="cdotaccent" unicode="&#x10b;" horiz-adv-x="595" 
d="M317 613q-17 0 -29.5 12t-12.5 30q0 17 12.5 29.5t29.5 12.5q18 0 30 -12.5t12 -29.5q0 -18 -12 -30t-30 -12zM41 275q0 125 77.5 205t198.5 80q80 0 143.5 -40.5t93.5 -106.5l-71 -36q-25 47 -68 75.5t-98 28.5q-84 0 -137.5 -58t-53.5 -148t53.5 -148t137.5 -58
q56 0 99.5 28.5t66.5 76.5l71 -37q-30 -66 -93.5 -106.5t-143.5 -40.5q-121 0 -198.5 80t-77.5 205z" />
    <glyph glyph-name="Ccaron" unicode="&#x10c;" horiz-adv-x="686" 
d="M507 848l-108 -98l-108 98l44 42l64 -67l64 67zM405 73q57 0 109.5 21.5t78.5 53.5l57 -60q-38 -47 -103.5 -73t-146.5 -26q-150 0 -250.5 103.5t-100.5 257.5t100.5 257.5t250.5 103.5q81 0 146.5 -26t103.5 -73l-57 -60q-26 32 -78.5 53.5t-109.5 21.5q-113 0 -189 -79
t-76 -198t76 -198t189 -79z" />
    <glyph glyph-name="ccaron" unicode="&#x10d;" horiz-adv-x="595" 
d="M425 698l-108 -98l-108 98l44 42l64 -67l64 67zM41 275q0 125 77.5 205t198.5 80q80 0 143.5 -40.5t93.5 -106.5l-71 -36q-25 47 -68 75.5t-98 28.5q-84 0 -137.5 -58t-53.5 -148t53.5 -148t137.5 -58q56 0 99.5 28.5t66.5 76.5l71 -37q-30 -66 -93.5 -106.5
t-143.5 -40.5q-121 0 -198.5 80t-77.5 205z" />
    <glyph glyph-name="Dcaron" unicode="&#x10e;" horiz-adv-x="735" 
d="M456 838l-108 -98l-108 98l44 42l64 -67l64 67zM91 700h226q176 0 272.5 -91.5t96.5 -258.5t-96.5 -258.5t-272.5 -91.5h-226v700zM185 80h136q129 0 200 70.5t71 199.5t-71 199.5t-200 70.5h-136v-540z" />
    <glyph glyph-name="dcaron" unicode="&#x10f;" horiz-adv-x="754" 
d="M680 497l-1 254h73v-93l-25 -161h-47zM505 436v314h88v-750h-88v114q-67 -122 -210 -122q-110 0 -182 81t-72 202t72 202t182 81q143 0 210 -122zM313 69q82 0 137 58.5t55 147.5t-55 147.5t-137 58.5q-79 0 -131 -58.5t-52 -147.5t52 -147.5t131 -58.5z" />
    <glyph glyph-name="Dcroat" unicode="&#x110;" horiz-adv-x="735" 
d="M91 700h226q176 0 272.5 -91.5t96.5 -258.5t-96.5 -258.5t-272.5 -91.5h-226v315h-74v70h74v315zM185 80h136q129 0 200 70.5t71 199.5t-71 199.5t-200 70.5h-136v-235h164v-70h-164v-235z" />
    <glyph glyph-name="dcroat" unicode="&#x111;" horiz-adv-x="669" 
d="M593 668h84v-66h-84v-602h-88v114q-67 -122 -210 -122q-110 0 -182 81t-72 202t72 202t182 81q143 0 210 -122v166h-149v66h149v82h88v-82zM313 69q82 0 137 58.5t55 147.5t-55 147.5t-137 58.5q-79 0 -131 -58.5t-52 -147.5t52 -147.5t131 -58.5z" />
    <glyph glyph-name="Emacron" unicode="&#x112;" horiz-adv-x="629" 
d="M442 763h-199v56h199v-56zM573 700v-80h-388v-220h342v-77h-342v-243h388v-80h-482v700h482z" />
    <glyph glyph-name="emacron" unicode="&#x113;" horiz-adv-x="624" 
d="M215 678h199v-56h-199v56zM314 559q133 0 207 -97t60 -223h-455q11 -76 62 -123t126 -47q97 0 152 79l68 -47q-80 -110 -220 -110q-118 0 -195.5 81.5t-77.5 202.5q0 122 77.5 203t195.5 81zM314 480q-76 0 -128 -48.5t-61 -125.5h374q-7 73 -55.5 123.5t-129.5 50.5z
" />
    <glyph glyph-name="Ebreve" unicode="&#x114;" horiz-adv-x="629" 
d="M342 742q-43 0 -70.5 27.5t-31.5 77.5l59 8q3 -59 43 -59q18 0 30.5 15t13.5 44l59 -8q-4 -50 -31.5 -77.5t-71.5 -27.5zM573 700v-80h-388v-220h342v-77h-342v-243h388v-80h-482v700h482z" />
    <glyph glyph-name="ebreve" unicode="&#x115;" horiz-adv-x="624" 
d="M314 601q-43 0 -70.5 27.5t-31.5 77.5l59 8q3 -59 43 -59q18 0 30.5 15t13.5 44l59 -8q-4 -50 -31.5 -77.5t-71.5 -27.5zM314 559q133 0 207 -97t60 -223h-455q11 -76 62 -123t126 -47q97 0 152 79l68 -47q-80 -110 -220 -110q-118 0 -195.5 81.5t-77.5 202.5
q0 122 77.5 203t195.5 81zM314 480q-76 0 -128 -48.5t-61 -125.5h374q-7 73 -55.5 123.5t-129.5 50.5z" />
    <glyph glyph-name="Edotaccent" unicode="&#x116;" horiz-adv-x="629" 
d="M342 753q-17 0 -29.5 12t-12.5 30q0 17 12.5 29.5t29.5 12.5q18 0 30 -12.5t12 -29.5q0 -18 -12 -30t-30 -12zM573 700v-80h-388v-220h342v-77h-342v-243h388v-80h-482v700h482z" />
    <glyph glyph-name="edotaccent" unicode="&#x117;" horiz-adv-x="624" 
d="M314 612q-17 0 -29.5 12t-12.5 30q0 17 12.5 29.5t29.5 12.5q18 0 30 -12.5t12 -29.5q0 -18 -12 -30t-30 -12zM314 559q133 0 207 -97t60 -223h-455q11 -76 62 -123t126 -47q97 0 152 79l68 -47q-80 -110 -220 -110q-118 0 -195.5 81.5t-77.5 202.5q0 122 77.5 203
t195.5 81zM314 480q-76 0 -128 -48.5t-61 -125.5h374q-7 73 -55.5 123.5t-129.5 50.5z" />
    <glyph glyph-name="Eogonek" unicode="&#x118;" horiz-adv-x="629" 
d="M614 -109l36 -15q-35 -85 -119 -85q-46 0 -74.5 27.5t-28.5 70.5q0 69 72 111h-409v700h482v-80h-388v-220h342v-77h-342v-243h388v-80h-1q-41 -17 -65 -44t-24 -57q0 -28 16.5 -44t43.5 -16q43 0 71 52z" />
    <glyph glyph-name="eogonek" unicode="&#x119;" horiz-adv-x="624" 
d="M314 559q133 0 207 -97t60 -223h-455q11 -76 62 -123t126 -47q97 0 152 79l68 -47q-79 -107 -212 -110q-38 -17 -60 -43.5t-22 -54.5t16.5 -44t43.5 -16q43 0 71 52l36 -15q-35 -85 -119 -85q-46 0 -74.5 27.5t-28.5 70.5q0 71 75 113q-98 19 -158.5 96t-60.5 183
q0 122 77.5 203t195.5 81zM314 480q-76 0 -128 -48.5t-61 -125.5h374q-7 73 -55.5 123.5t-129.5 50.5z" />
    <glyph glyph-name="Ecaron" unicode="&#x11a;" horiz-adv-x="629" 
d="M450 838l-108 -98l-108 98l44 42l64 -67l64 67zM573 700v-80h-388v-220h342v-77h-342v-243h388v-80h-482v700h482z" />
    <glyph glyph-name="ecaron" unicode="&#x11b;" horiz-adv-x="624" 
d="M378 739l44 -42l-108 -98l-108 98l44 42l64 -67zM314 559q133 0 207 -97t60 -223h-455q11 -76 62 -123t126 -47q97 0 152 79l68 -47q-80 -110 -220 -110q-118 0 -195.5 81.5t-77.5 202.5q0 122 77.5 203t195.5 81zM314 480q-76 0 -128 -48.5t-61 -125.5h374
q-7 73 -55.5 123.5t-129.5 50.5z" />
    <glyph glyph-name="Gcircumflex" unicode="&#x11c;" horiz-adv-x="796" 
d="M471 751l-64 66l-64 -66l-44 41l108 99l108 -99zM426 397h318q19 -180 -75.5 -294t-260.5 -114q-157 0 -258 101.5t-101 259.5t101 259t258 101q82 0 155 -34.5t117 -91.5l-62 -55q-35 44 -91 70.5t-118 26.5q-116 0 -190 -77t-74 -199q0 -121 74 -197.5t190 -76.5
q110 0 179.5 68.5t69.5 178.5h-232v74z" />
    <glyph glyph-name="gcircumflex" unicode="&#x11d;" horiz-adv-x="582" 
d="M337 601l-64 66l-64 -66l-44 41l108 99l108 -99zM578 558v-80q-67 0 -108 -22q27 -46 27 -103q0 -88 -62 -145.5t-157 -57.5q-62 0 -111 23q-32 -26 -32 -57q0 -53 97 -53h129q194 0 194 -148q0 -81 -64 -124t-184 -43q-179 0 -294 66l36 70q98 -56 258 -56t160 85
q0 42 -29 57.5t-91 15.5h-132q-83 0 -127.5 29t-44.5 83q0 65 67 113q-60 57 -60 142q0 90 63.5 148.5t160.5 58.5q91 0 155 -54q42 52 149 52zM278 226q58 0 95.5 36t37.5 91q0 57 -39 94t-98 37q-60 0 -99 -37t-39 -94q0 -56 40 -91.5t102 -35.5z" />
    <glyph glyph-name="Gbreve" unicode="&#x11e;" horiz-adv-x="796" 
d="M407 751q-43 0 -70.5 27.5t-31.5 77.5l59 8q3 -59 43 -59q18 0 30.5 15t13.5 44l59 -8q-4 -50 -31.5 -77.5t-71.5 -27.5zM426 397h318q19 -180 -75.5 -294t-260.5 -114q-157 0 -258 101.5t-101 259.5t101 259t258 101q82 0 155 -34.5t117 -91.5l-62 -55q-35 44 -91 70.5
t-118 26.5q-116 0 -190 -77t-74 -199q0 -121 74 -197.5t190 -76.5q110 0 179.5 68.5t69.5 178.5h-232v74z" />
    <glyph glyph-name="gbreve" unicode="&#x11f;" horiz-adv-x="582" 
d="M273 601q-43 0 -70.5 27.5t-31.5 77.5l59 8q3 -59 43 -59q18 0 30.5 15t13.5 44l59 -8q-4 -50 -31.5 -77.5t-71.5 -27.5zM578 558v-80q-67 0 -108 -22q27 -46 27 -103q0 -88 -62 -145.5t-157 -57.5q-62 0 -111 23q-32 -26 -32 -57q0 -53 97 -53h129q194 0 194 -148
q0 -81 -64 -124t-184 -43q-179 0 -294 66l36 70q98 -56 258 -56t160 85q0 42 -29 57.5t-91 15.5h-132q-83 0 -127.5 29t-44.5 83q0 65 67 113q-60 57 -60 142q0 90 63.5 148.5t160.5 58.5q91 0 155 -54q42 52 149 52zM278 226q58 0 95.5 36t37.5 91q0 57 -39 94t-98 37
q-60 0 -99 -37t-39 -94q0 -56 40 -91.5t102 -35.5z" />
    <glyph glyph-name="Gdotaccent" unicode="&#x120;" horiz-adv-x="796" 
d="M407 762q-17 0 -29.5 12t-12.5 30q0 17 12.5 29.5t29.5 12.5q18 0 30 -12.5t12 -29.5q0 -18 -12 -30t-30 -12zM426 397h318q19 -180 -75.5 -294t-260.5 -114q-157 0 -258 101.5t-101 259.5t101 259t258 101q82 0 155 -34.5t117 -91.5l-62 -55q-35 44 -91 70.5t-118 26.5
q-116 0 -190 -77t-74 -199q0 -121 74 -197.5t190 -76.5q110 0 179.5 68.5t69.5 178.5h-232v74z" />
    <glyph glyph-name="gdotaccent" unicode="&#x121;" horiz-adv-x="582" 
d="M273 612q-17 0 -29.5 12t-12.5 30q0 17 12.5 29.5t29.5 12.5q18 0 30 -12.5t12 -29.5q0 -18 -12 -30t-30 -12zM578 558v-80q-67 0 -108 -22q27 -46 27 -103q0 -88 -62 -145.5t-157 -57.5q-62 0 -111 23q-32 -26 -32 -57q0 -53 97 -53h129q194 0 194 -148q0 -81 -64 -124
t-184 -43q-179 0 -294 66l36 70q98 -56 258 -56t160 85q0 42 -29 57.5t-91 15.5h-132q-83 0 -127.5 29t-44.5 83q0 65 67 113q-60 57 -60 142q0 90 63.5 148.5t160.5 58.5q91 0 155 -54q42 52 149 52zM278 226q58 0 95.5 36t37.5 91q0 57 -39 94t-98 37q-60 0 -99 -37
t-39 -94q0 -56 40 -91.5t102 -35.5z" />
    <glyph glyph-name="uni0122" unicode="&#x122;" horiz-adv-x="796" 
d="M426 397h318q19 -180 -75.5 -294t-260.5 -114q-157 0 -258 101.5t-101 259.5t101 259t258 101q82 0 155 -34.5t117 -91.5l-62 -55q-35 44 -91 70.5t-118 26.5q-116 0 -190 -77t-74 -199q0 -121 74 -197.5t190 -76.5q110 0 179.5 68.5t69.5 178.5h-232v74zM420 -226h-46
v171h71v-63z" />
    <glyph glyph-name="uni0123" unicode="&#x123;" horiz-adv-x="582" 
d="M283 754h65l-37 -150h-76zM578 558v-80q-67 0 -108 -22q27 -46 27 -103q0 -88 -62 -145.5t-157 -57.5q-62 0 -111 23q-32 -26 -32 -57q0 -53 97 -53h129q194 0 194 -148q0 -81 -64 -124t-184 -43q-179 0 -294 66l36 70q98 -56 258 -56t160 85q0 42 -29 57.5t-91 15.5
h-132q-83 0 -127.5 29t-44.5 83q0 65 67 113q-60 57 -60 142q0 90 63.5 148.5t160.5 58.5q91 0 155 -54q42 52 149 52zM278 226q58 0 95.5 36t37.5 91q0 57 -39 94t-98 37q-60 0 -99 -37t-39 -94q0 -56 40 -91.5t102 -35.5z" />
    <glyph glyph-name="Hcircumflex" unicode="&#x124;" horiz-adv-x="752" 
d="M440 742l-64 66l-64 -66l-44 41l108 99l108 -99zM567 405v295h94v-700h-94v325h-382v-325h-94v700h94v-295h382z" />
    <glyph glyph-name="hcircumflex" unicode="&#x125;" horiz-adv-x="636" 
d="M228 833l-44 -41l-64 66l-64 -66l-44 41l108 99zM361 556q100 0 156.5 -68t56.5 -188v-300h-89v300q0 83 -43 132.5t-115 49.5q-73 0 -117.5 -50t-44.5 -132v-300h-89v750h89v-303q62 109 196 109z" />
    <glyph glyph-name="Hbar" unicode="&#x126;" horiz-adv-x="752" 
d="M661 591h62v-66h-62v-525h-94v325h-382v-325h-94v525h-64v66h64v109h94v-109h382v109h94v-109zM185 405h382v120h-382v-120z" />
    <glyph glyph-name="hbar" unicode="&#x127;" horiz-adv-x="636" 
d="M361 556q100 0 156.5 -68t56.5 -188v-300h-89v300q0 83 -43 132.5t-115 49.5q-73 0 -117.5 -50t-44.5 -132v-300h-89v599h-71v66h71v85h89v-85h129v-66h-129v-152q62 109 196 109z" />
    <glyph glyph-name="Itilde" unicode="&#x128;" horiz-adv-x="276" 
d="M53 765l-31 32q34 51 79 51q25 0 46 -24t33 -24q24 0 44 29l32 -32q-30 -50 -77 -50q-20 0 -33.5 12.5t-24 24.5t-22.5 12q-25 0 -46 -31zM91 0v700h94v-700h-94z" />
    <glyph glyph-name="itilde" unicode="&#x129;" horiz-adv-x="241" 
d="M35 615l-31 32q34 51 79 51q25 0 46 -24t33 -24q24 0 44 29l32 -32q-30 -50 -77 -50q-20 0 -33.5 12.5t-24 24.5t-22.5 12q-25 0 -46 -31zM165 0h-89v550h89v-550z" />
    <glyph glyph-name="Imacron" unicode="&#x12a;" horiz-adv-x="276" 
d="M237 763h-199v56h199v-56zM91 0v700h94v-700h-94z" />
    <glyph glyph-name="imacron" unicode="&#x12b;" horiz-adv-x="241" 
d="M220 613h-199v56h199v-56zM165 0h-89v550h89v-550z" />
    <glyph glyph-name="Ibreve" unicode="&#x12c;" horiz-adv-x="276" 
d="M182 855l59 -8q-4 -50 -31.5 -77.5t-71.5 -27.5q-43 0 -70.5 27.5t-31.5 77.5l59 8q3 -59 43 -59q18 0 30.5 15t13.5 44zM185 0h-94v700h94v-700z" />
    <glyph glyph-name="ibreve" unicode="&#x12d;" horiz-adv-x="241" 
d="M164 705l59 -8q-4 -50 -31.5 -77.5t-71.5 -27.5q-43 0 -70.5 27.5t-31.5 77.5l59 8q3 -59 43 -59q18 0 30.5 15t13.5 44zM165 0h-89v550h89v-550z" />
    <glyph glyph-name="Iogonek" unicode="&#x12e;" horiz-adv-x="276" 
d="M227 -109l36 -15q-35 -85 -119 -85q-46 0 -74.5 27.5t-28.5 70.5q0 69 72 111h-22v700h94v-700q-41 -17 -65 -44t-24 -57q0 -28 16.5 -44t43.5 -16q43 0 71 52z" />
    <glyph glyph-name="iogonek" unicode="&#x12f;" horiz-adv-x="241" 
d="M120 603q-17 0 -29.5 12t-12.5 30q0 17 12.5 29.5t29.5 12.5q18 0 30 -12.5t12 -29.5q0 -18 -12 -30t-30 -12zM206 -109l36 -15q-35 -85 -119 -85q-46 0 -74.5 27.5t-28.5 70.5q0 69 72 111h-16v550h89v-550h-1q-41 -17 -65 -44t-24 -57q0 -28 16.5 -44t43.5 -16
q43 0 71 52z" />
    <glyph glyph-name="Idotaccent" unicode="&#x130;" horiz-adv-x="276" 
d="M138 753q-17 0 -29.5 12t-12.5 30q0 17 12.5 29.5t29.5 12.5q18 0 30 -12.5t12 -29.5q0 -18 -12 -30t-30 -12zM91 0v700h94v-700h-94z" />
    <glyph glyph-name="dotlessi" unicode="&#x131;" horiz-adv-x="241" 
d="M165 0h-89v550h89v-550z" />
    <glyph glyph-name="IJ" unicode="&#x132;" horiz-adv-x="795" 
d="M91 0v700h94v-700h-94zM281 149l84 32q10 -50 44.5 -78.5t85.5 -28.5q57 0 89.5 35.5t32.5 98.5v492h94v-492q0 -103 -55.5 -160.5t-156.5 -57.5q-84 0 -141 40.5t-77 118.5z" />
    <glyph glyph-name="ij" unicode="&#x133;" horiz-adv-x="478" 
d="M120 637q-25 0 -42.5 18t-17.5 43t17.5 42.5t42.5 17.5t43 -17.5t18 -42.5q0 -26 -17.5 -43.5t-43.5 -17.5zM358 637q-26 0 -43.5 17.5t-17.5 43.5q0 25 17.5 42t43.5 17q25 0 42.5 -17t17.5 -42q0 -26 -17.5 -43.5t-42.5 -17.5zM165 0h-89v550h89v-550zM123 -215l32 65
q42 -20 78 -20q40 0 60 27.5t20 96.5v596h89v-610q0 -193 -152 -193q-58 0 -127 38z" />
    <glyph glyph-name="Jcircumflex" unicode="&#x134;" horiz-adv-x="519" 
d="M280 783l108 99l108 -99l-44 -41l-64 66l-64 -66zM5 149l84 32q10 -50 44.5 -78.5t85.5 -28.5q57 0 89.5 35.5t32.5 98.5v492h94v-492q0 -103 -55.5 -160.5t-156.5 -57.5q-84 0 -141 40.5t-77 118.5z" />
    <glyph glyph-name="jcircumflex" unicode="&#x135;" horiz-adv-x="241" 
d="M12 633l108 99l108 -99l-44 -41l-64 66l-64 -66zM-114 -215l32 65q42 -20 77 -20q40 0 60.5 27.5t20.5 96.5v596h89v-610q0 -193 -153 -193q-59 0 -126 38z" />
    <glyph glyph-name="uni0136" unicode="&#x136;" horiz-adv-x="639" 
d="M612 696l-345 -330l357 -362v-4h-115l-324 331v-331h-94v700h94v-303l312 303h115v-4zM349 -218h-46v171h71v-63z" />
    <glyph glyph-name="uni0137" unicode="&#x137;" horiz-adv-x="522" 
d="M511 547l-262 -244l270 -300v-3h-105l-249 279v-279h-89v750h89v-425l237 225h109v-3zM298 -218h-46v171h71v-63z" />
    <glyph glyph-name="Lacute" unicode="&#x139;" horiz-adv-x="574" 
d="M85 750l81 116h106l-110 -116h-77zM185 700v-620h355v-80h-449v700h94z" />
    <glyph glyph-name="lacute" unicode="&#x13a;" horiz-adv-x="241" 
d="M67 800l81 116h105l-109 -116h-77zM165 0h-89v750h89v-750z" />
    <glyph glyph-name="uni013B" unicode="&#x13b;" horiz-adv-x="574" 
d="M185 700v-620h355v-80h-449v700h94zM299 -218v171h71v-63l-25 -108h-46z" />
    <glyph glyph-name="uni013C" unicode="&#x13c;" horiz-adv-x="241" 
d="M165 0h-89v750h89v-750zM87 -218v171h71v-63l-25 -108h-46z" />
    <glyph glyph-name="Lcaron" unicode="&#x13d;" horiz-adv-x="574" 
d="M185 700v-620h355v-80h-449v700h94zM417 464v236h69v-87l-24 -149h-45z" />
    <glyph glyph-name="lcaron" unicode="&#x13e;" horiz-adv-x="322" 
d="M248 497l-1 254h73v-93l-25 -161h-47zM165 0h-89v750h89v-750z" />
    <glyph glyph-name="Ldot" unicode="&#x13f;" horiz-adv-x="574" 
d="M185 700v-620h355v-80h-449v700h94zM393 332q-23 0 -39 16t-16 39t16 39t39 16t39 -16t16 -39t-16 -39t-39 -16z" />
    <glyph glyph-name="ldot" unicode="&#x140;" horiz-adv-x="323" 
d="M165 0h-89v750h89v-750zM280 303q-22 0 -37 15t-15 37q0 21 15 36t37 15q21 0 36 -15t15 -36q0 -22 -15 -37t-36 -15z" />
    <glyph glyph-name="Lslash" unicode="&#x141;" horiz-adv-x="574" 
d="M185 303v-223h355v-80h-449v235l-86 -61v90l86 61v375h94v-308l185 132v-89z" />
    <glyph glyph-name="lslash" unicode="&#x142;" horiz-adv-x="275" 
d="M182 436l87 85v-88l-87 -85v-348h-88v263l-86 -84v87l86 84v400h88v-314z" />
    <glyph glyph-name="Nacute" unicode="&#x143;" horiz-adv-x="774" 
d="M343 750l81 116h106l-110 -116h-77zM683 700v-700h-68l-432 533v-533h-92v700h68l432 -533v533h92z" />
    <glyph glyph-name="nacute" unicode="&#x144;" horiz-adv-x="636" 
d="M345 716h106l-110 -116h-77zM358 559q101 0 158.5 -66.5t56.5 -184.5v-308h-89l1 303q0 82 -43.5 131.5t-114.5 49.5q-73 0 -117.5 -49.5t-44.5 -131.5v-303h-89v550h89v-100q60 109 193 109z" />
    <glyph glyph-name="uni0145" unicode="&#x145;" horiz-adv-x="774" 
d="M683 700v-700h-68l-432 533v-533h-92v700h68l432 -533v533h92zM354 -218v171h71v-63l-25 -108h-46z" />
    <glyph glyph-name="uni0146" unicode="&#x146;" horiz-adv-x="636" 
d="M358 559q101 0 158.5 -66.5t56.5 -184.5v-308h-89l1 303q0 82 -43.5 131.5t-114.5 49.5q-73 0 -117.5 -49.5t-44.5 -131.5v-303h-89v550h89v-100q60 109 193 109zM340 -218h-46v171h71v-63z" />
    <glyph glyph-name="Ncaron" unicode="&#x147;" horiz-adv-x="774" 
d="M505 838l-108 -98l-108 98l44 42l64 -67l64 67zM683 700v-700h-68l-432 533v-533h-92v700h68l432 -533v533h92z" />
    <glyph glyph-name="ncaron" unicode="&#x148;" horiz-adv-x="636" 
d="M382 730l44 -42l-108 -98l-108 98l44 42l64 -67zM358 559q101 0 158.5 -66.5t56.5 -184.5v-308h-89l1 303q0 82 -43.5 131.5t-114.5 49.5q-73 0 -117.5 -49.5t-44.5 -131.5v-303h-89v550h89v-100q60 109 193 109z" />
    <glyph glyph-name="napostrophe" unicode="&#x149;" horiz-adv-x="636" 
d="M126 834h76l-63 -226h-58zM358 559q101 0 158.5 -66.5t56.5 -184.5v-308h-89l1 303q0 82 -43.5 131.5t-114.5 49.5q-73 0 -117.5 -49.5t-44.5 -131.5v-303h-89v550h89v-100q60 109 193 109z" />
    <glyph glyph-name="Eng" unicode="&#x14a;" horiz-adv-x="774" 
d="M591 167v533h92v-769q0 -72 -36.5 -119t-89.5 -60.5t-114 -0.5t-109 52l35 64q51 -37 103 -41.5t87 27.5t35 94v79l-411 507v-533h-92v700h68z" />
    <glyph glyph-name="eng" unicode="&#x14b;" horiz-adv-x="636" 
d="M358 559q101 0 158.5 -66.5t56.5 -184.5v-377q0 -72 -36.5 -119t-89.5 -60.5t-114 -0.5t-109 52l35 64q51 -37 103 -41.5t87 27.5t35 94v147l1 209q0 82 -43.5 131.5t-114.5 49.5q-73 0 -117.5 -49.5t-44.5 -131.5v-303h-89v550h89v-100q60 109 193 109z" />
    <glyph glyph-name="Omacron" unicode="&#x14c;" horiz-adv-x="812" 
d="M506 774h-199v56h199v-56zM406 -11q-154 0 -255.5 102.5t-101.5 258.5t101.5 258.5t255.5 102.5t255.5 -102.5t101.5 -258.5t-101.5 -258.5t-255.5 -102.5zM406 77q114 0 188.5 77.5t74.5 195.5t-74.5 195.5t-188.5 77.5t-188.5 -77.5t-74.5 -195.5t74.5 -195.5
t188.5 -77.5z" />
    <glyph glyph-name="omacron" unicode="&#x14d;" horiz-adv-x="637" 
d="M418 620h-199v56h199v-56zM318 -12q-121 0 -199 80.5t-78 206.5t78 206.5t199 80.5q122 0 200 -80.5t78 -206.5t-78 -206.5t-200 -80.5zM318 68q83 0 137.5 58.5t54.5 148.5t-54.5 148.5t-137.5 58.5t-137 -58.5t-54 -148.5t54 -148.5t137 -58.5z" />
    <glyph glyph-name="Obreve" unicode="&#x14e;" horiz-adv-x="812" 
d="M406 753q-43 0 -70.5 27.5t-31.5 77.5l59 8q3 -59 43 -59q18 0 30.5 15t13.5 44l59 -8q-4 -50 -31.5 -77.5t-71.5 -27.5zM406 711q154 0 255.5 -102.5t101.5 -258.5t-101.5 -258.5t-255.5 -102.5t-255.5 102.5t-101.5 258.5t101.5 258.5t255.5 102.5zM406 77
q114 0 188.5 77.5t74.5 195.5t-74.5 195.5t-188.5 77.5t-188.5 -77.5t-74.5 -195.5t74.5 -195.5t188.5 -77.5z" />
    <glyph glyph-name="obreve" unicode="&#x14f;" horiz-adv-x="637" 
d="M318 599q-43 0 -70.5 27.5t-31.5 77.5l59 8q3 -59 43 -59q18 0 30.5 15t13.5 44l59 -8q-4 -50 -31.5 -77.5t-71.5 -27.5zM318 562q122 0 200 -80.5t78 -206.5t-78 -206.5t-200 -80.5q-121 0 -199 80.5t-78 206.5t78 206.5t199 80.5zM318 68q83 0 137.5 58.5t54.5 148.5
t-54.5 148.5t-137.5 58.5t-137 -58.5t-54 -148.5t54 -148.5t137 -58.5z" />
    <glyph glyph-name="Ohungarumlaut" unicode="&#x150;" horiz-adv-x="812" 
d="M382 897h60l-63 -136h-48zM473 897h60l-63 -136h-48zM406 -11q-154 0 -255.5 102.5t-101.5 258.5t101.5 258.5t255.5 102.5t255.5 -102.5t101.5 -258.5t-101.5 -258.5t-255.5 -102.5zM406 77q114 0 188.5 77.5t74.5 195.5t-74.5 195.5t-188.5 77.5t-188.5 -77.5
t-74.5 -195.5t74.5 -195.5t188.5 -77.5z" />
    <glyph glyph-name="ohungarumlaut" unicode="&#x151;" horiz-adv-x="637" 
d="M294 743h60l-63 -136h-48zM385 743h60l-63 -136h-48zM318 -12q-121 0 -199 80.5t-78 206.5t78 206.5t199 80.5q122 0 200 -80.5t78 -206.5t-78 -206.5t-200 -80.5zM318 68q83 0 137.5 58.5t54.5 148.5t-54.5 148.5t-137.5 58.5t-137 -58.5t-54 -148.5t54 -148.5
t137 -58.5z" />
    <glyph glyph-name="OE" unicode="&#x152;" horiz-adv-x="1040" 
d="M983 700v-80h-388v-220h343v-77h-343v-243h388v-80h-570q-174 0 -269 91.5t-95 258.5t95 258.5t269 91.5h570zM409 80h92v540h-92q-127 0 -196.5 -70.5t-69.5 -199.5t69.5 -199.5t196.5 -70.5z" />
    <glyph glyph-name="oe" unicode="&#x153;" horiz-adv-x="1006" 
d="M963 239h-454q7 -57 40 -100l5 -2q0 -1 -0.5 -1t-0.5 -1q55 -66 144 -66q96 0 152 79l68 -47q-80 -110 -220 -110q-113 0 -191 76q-77 -77 -189 -77q-121 0 -198.5 80t-77.5 205t77.5 205t198.5 80q112 0 189 -77q76 76 191 76q133 0 206.5 -97t59.5 -223zM317 69
q85 0 140 65q-33 64 -33 141t33 141q-57 65 -140 65q-84 0 -137.5 -58t-53.5 -148t53.5 -148t137.5 -58zM697 480q-90 0 -144 -65q0 -1 0.5 -1t0.5 -1l-4 -2q-35 -44 -42 -105h373q-6 73 -54.5 123.5t-129.5 50.5z" />
    <glyph glyph-name="Racute" unicode="&#x154;" horiz-adv-x="663" 
d="M358 866h106l-110 -116h-77zM465 283l155 -277v-6h-99l-148 274h-188v-274h-94v700h298q105 0 166 -57.5t61 -155.5q0 -78 -39.5 -131t-111.5 -73zM378 620h-193v-266h193q66 0 105 36.5t39 96.5t-39 96.5t-105 36.5z" />
    <glyph glyph-name="racute" unicode="&#x155;" horiz-adv-x="418" 
d="M266 716h106l-110 -116h-77zM159 402h2q18 68 80.5 111.5t143.5 40.5v-85q-88 5 -153.5 -53.5t-65.5 -165.5v-250h-90v550h76z" />
    <glyph glyph-name="uni0156" unicode="&#x156;" horiz-adv-x="663" 
d="M465 283l155 -277v-6h-99l-148 274h-188v-274h-94v700h298q105 0 166 -57.5t61 -155.5q0 -78 -39.5 -131t-111.5 -73zM378 620h-193v-266h193q66 0 105 36.5t39 96.5t-39 96.5t-105 36.5zM362 -218h-46v171h71v-63z" />
    <glyph glyph-name="uni0157" unicode="&#x157;" horiz-adv-x="418" 
d="M159 402h2q18 68 80.5 111.5t143.5 40.5v-85q-88 5 -153.5 -53.5t-65.5 -165.5v-250h-90v550h76zM133 -218h-46v171h71v-63z" />
    <glyph glyph-name="Rcaron" unicode="&#x158;" horiz-adv-x="663" 
d="M395 880l44 -42l-108 -98l-108 98l44 42l64 -67zM465 283l155 -277v-6h-99l-148 274h-188v-274h-94v700h298q105 0 166 -57.5t61 -155.5q0 -78 -39.5 -131t-111.5 -73zM378 620h-193v-266h193q66 0 105 36.5t39 96.5t-39 96.5t-105 36.5z" />
    <glyph glyph-name="rcaron" unicode="&#x159;" horiz-adv-x="418" 
d="M303 730l44 -42l-108 -98l-108 98l44 42l64 -67zM159 402h2q18 68 80.5 111.5t143.5 40.5v-85q-88 5 -153.5 -53.5t-65.5 -165.5v-250h-90v550h76z" />
    <glyph glyph-name="Sacute" unicode="&#x15a;" horiz-adv-x="629" 
d="M253 760l81 116h106l-110 -116h-77zM562 551l-80 -37q-47 116 -187 116q-67 0 -109 -25.5t-42 -80.5q0 -15 3.5 -27t12.5 -22.5t16.5 -18.5t25.5 -16t28.5 -13t35.5 -12.5t37 -11t42 -11.5q57 -15 93 -29t70.5 -37.5t50.5 -58t16 -81.5q0 -52 -23 -91.5t-61.5 -61.5
t-83.5 -33t-94 -11q-103 0 -177 46t-99 134l77 41q23 -71 77 -105.5t127 -34.5q71 0 117.5 27.5t46.5 84.5q0 56 -42.5 85t-138.5 55q-35 10 -48 13.5t-46.5 15t-49 20.5t-40.5 25.5t-36 33.5t-20.5 41.5t-9.5 53.5q0 95 71 140.5t177 45.5q102 0 168.5 -43t94.5 -117z" />
    <glyph glyph-name="sacute" unicode="&#x15b;" horiz-adv-x="518" 
d="M199 611l81 116h106l-110 -116h-77zM469 434l-74 -31q-16 40 -53 63.5t-91 23.5q-52 0 -85 -20t-33 -59q0 -17 8.5 -31t20 -23.5t34.5 -18t41 -13.5t49 -12q95 -23 143.5 -59.5t48.5 -108.5q0 -77 -65 -117t-153 -40t-149 35.5t-81 104.5l73 35q18 -52 60.5 -77t97.5 -25
t92 21.5t37 64.5q0 40 -32.5 59.5t-101.5 36.5q-34 8 -55.5 14.5t-54.5 20.5t-52 29.5t-34 41.5t-15 57q1 76 61.5 116t146.5 40q82 0 138 -35t78 -93z" />
    <glyph glyph-name="Scircumflex" unicode="&#x15c;" horiz-adv-x="629" 
d="M199 793l108 99l108 -99l-44 -41l-64 66l-64 -66zM562 551l-80 -37q-47 116 -187 116q-67 0 -109 -25.5t-42 -80.5q0 -15 3.5 -27t12.5 -22.5t16.5 -18.5t25.5 -16t28.5 -13t35.5 -12.5t37 -11t42 -11.5q57 -15 93 -29t70.5 -37.5t50.5 -58t16 -81.5q0 -52 -23 -91.5
t-61.5 -61.5t-83.5 -33t-94 -11q-103 0 -177 46t-99 134l77 41q23 -71 77 -105.5t127 -34.5q71 0 117.5 27.5t46.5 84.5q0 56 -42.5 85t-138.5 55q-35 10 -48 13.5t-46.5 15t-49 20.5t-40.5 25.5t-36 33.5t-20.5 41.5t-9.5 53.5q0 95 71 140.5t177 45.5q102 0 168.5 -43
t94.5 -117z" />
    <glyph glyph-name="scircumflex" unicode="&#x15d;" horiz-adv-x="518" 
d="M145 644l108 99l108 -99l-44 -41l-64 66l-64 -66zM469 434l-74 -31q-16 40 -53 63.5t-91 23.5q-52 0 -85 -20t-33 -59q0 -17 8.5 -31t20 -23.5t34.5 -18t41 -13.5t49 -12q95 -23 143.5 -59.5t48.5 -108.5q0 -77 -65 -117t-153 -40t-149 35.5t-81 104.5l73 35
q18 -52 60.5 -77t97.5 -25t92 21.5t37 64.5q0 40 -32.5 59.5t-101.5 36.5q-34 8 -55.5 14.5t-54.5 20.5t-52 29.5t-34 41.5t-15 57q1 76 61.5 116t146.5 40q82 0 138 -35t78 -93z" />
    <glyph glyph-name="Scedilla" unicode="&#x15e;" horiz-adv-x="629" 
d="M575 186q0 -93 -68.5 -141.5t-167.5 -54.5l-21 -59q59 -12 59 -61q0 -30 -22.5 -50t-63.5 -20q-52 0 -102 31l18 35q47 -26 79 -26q37 0 37 32t-58 42l22 76q-93 5 -160 51t-90 128l77 41q23 -71 77 -105.5t127 -34.5q71 0 117.5 27.5t46.5 84.5q0 56 -42.5 85t-138.5 55
q-35 10 -48 13.5t-46.5 15t-49 20.5t-40.5 25.5t-36 33.5t-20.5 41.5t-9.5 53.5q0 95 71 140.5t177 45.5q102 0 168.5 -43t94.5 -117l-80 -37q-47 116 -187 116q-67 0 -109 -25.5t-42 -80.5q0 -15 3.5 -27t12.5 -22.5t16.5 -18.5t25.5 -16t28.5 -13t35.5 -12.5t37 -11
t42 -11.5q57 -15 93 -29t70.5 -37.5t50.5 -58t16 -81.5z" />
    <glyph glyph-name="scedilla" unicode="&#x15f;" horiz-adv-x="518" 
d="M478 145q0 -71 -56 -110.5t-137 -45.5l-20 -58q59 -12 59 -61q0 -30 -22.5 -50t-63.5 -20q-52 0 -102 31l18 35q47 -26 79 -26q37 0 37 32t-58 42l22 75q-78 5 -132 40t-72 99l73 35q18 -52 60.5 -77t97.5 -25t92 21.5t37 64.5q0 40 -32.5 59.5t-101.5 36.5
q-34 8 -55.5 14.5t-54.5 20.5t-52 29.5t-34 41.5t-15 57q1 76 61.5 116t146.5 40q82 0 138 -35t78 -93l-74 -31q-16 40 -53 63.5t-91 23.5q-52 0 -85 -20t-33 -59q0 -17 8.5 -31t20 -23.5t34.5 -18t41 -13.5t49 -12q95 -23 143.5 -59.5t48.5 -108.5z" />
    <glyph glyph-name="Scaron" unicode="&#x160;" horiz-adv-x="629" 
d="M415 848l-108 -98l-108 98l44 42l64 -67l64 67zM562 551l-80 -37q-47 116 -187 116q-67 0 -109 -25.5t-42 -80.5q0 -15 3.5 -27t12.5 -22.5t16.5 -18.5t25.5 -16t28.5 -13t35.5 -12.5t37 -11t42 -11.5q57 -15 93 -29t70.5 -37.5t50.5 -58t16 -81.5q0 -52 -23 -91.5
t-61.5 -61.5t-83.5 -33t-94 -11q-103 0 -177 46t-99 134l77 41q23 -71 77 -105.5t127 -34.5q71 0 117.5 27.5t46.5 84.5q0 56 -42.5 85t-138.5 55q-35 10 -48 13.5t-46.5 15t-49 20.5t-40.5 25.5t-36 33.5t-20.5 41.5t-9.5 53.5q0 95 71 140.5t177 45.5q102 0 168.5 -43
t94.5 -117z" />
    <glyph glyph-name="scaron" unicode="&#x161;" horiz-adv-x="518" 
d="M361 699l-108 -98l-108 98l44 42l64 -67l64 67zM469 434l-74 -31q-16 40 -53 63.5t-91 23.5q-52 0 -85 -20t-33 -59q0 -17 8.5 -31t20 -23.5t34.5 -18t41 -13.5t49 -12q95 -23 143.5 -59.5t48.5 -108.5q0 -77 -65 -117t-153 -40t-149 35.5t-81 104.5l73 35
q18 -52 60.5 -77t97.5 -25t92 21.5t37 64.5q0 40 -32.5 59.5t-101.5 36.5q-34 8 -55.5 14.5t-54.5 20.5t-52 29.5t-34 41.5t-15 57q1 76 61.5 116t146.5 40q82 0 138 -35t78 -93z" />
    <glyph glyph-name="uni0162" unicode="&#x162;" horiz-adv-x="631" 
d="M363 620v-620h-22l-20 -58q59 -12 59 -61q0 -30 -22.5 -50t-63.5 -20q-52 0 -102 31l18 35q47 -26 79 -26q37 0 37 32t-58 42l22 75h-21v620h-232v80h558v-80h-232z" />
    <glyph glyph-name="uni0163" unicode="&#x163;" horiz-adv-x="376" 
d="M346 77v-77h-66l-20 -58q59 -12 59 -61q0 -30 -22.5 -50t-63.5 -20q-52 0 -102 31l18 35q47 -26 79 -26q37 0 37 32t-58 42l23 77q-124 19 -124 162v316h-77v70h77v121l89 18v-139h136v-70h-136v-287q0 -61 23 -88.5t79 -27.5h49z" />
    <glyph glyph-name="Tcaron" unicode="&#x164;" horiz-adv-x="631" 
d="M379 880l44 -42l-108 -98l-108 98l44 42l64 -67zM37 700h558v-80h-232v-620h-94v620h-232v80z" />
    <glyph glyph-name="tcaron" unicode="&#x165;" horiz-adv-x="376" 
d="M340 750v-58l-23 -100h-42v158h65zM297 77h49v-77h-79q-161 0 -161 164v316h-77v70h77v121l89 18v-139h136v-70h-136v-287q0 -61 23 -88.5t79 -27.5z" />
    <glyph glyph-name="Tbar" unicode="&#x166;" horiz-adv-x="631" 
d="M595 700v-80h-232v-235h145v-70h-145v-315h-94v315h-147v70h147v235h-232v80h558z" />
    <glyph glyph-name="tbar" unicode="&#x167;" horiz-adv-x="376" 
d="M297 77h49v-77h-79q-161 0 -161 164v125h-78v67h78v124h-77v70h77v121l89 18v-139h136v-70h-136v-124h135v-67h-135v-96q0 -61 23 -88.5t79 -27.5z" />
    <glyph glyph-name="Utilde" unicode="&#x168;" horiz-adv-x="759" 
d="M295 765l-31 32q34 51 79 51q25 0 46 -24t33 -24q24 0 44 29l32 -32q-30 -50 -77 -50q-20 0 -33.5 12.5t-24 24.5t-22.5 12q-25 0 -46 -31zM582 288v412h94v-418q0 -136 -79 -214.5t-217 -78.5t-216.5 78.5t-79.5 214.5l-1 418h94v-412q0 -99 54 -155.5t149 -56.5
q94 0 148 56.5t54 155.5z" />
    <glyph glyph-name="utilde" unicode="&#x169;" horiz-adv-x="617" 
d="M224 615l-31 32q34 51 79 51q25 0 46 -24t33 -24q24 0 44 29l32 -32q-30 -50 -77 -50q-26 0 -46 24.5t-34 24.5q-25 0 -46 -31zM459 226v324h89l-1 -327q0 -103 -65.5 -167t-172.5 -64q-108 0 -174 64t-66 167v327h89v-324q0 -69 41.5 -112.5t109.5 -43.5
q67 0 108.5 43.5t41.5 112.5z" />
    <glyph glyph-name="Umacron" unicode="&#x16a;" horiz-adv-x="759" 
d="M479 763h-199v56h199v-56zM582 288v412h94v-418q0 -136 -79 -214.5t-217 -78.5t-216.5 78.5t-79.5 214.5l-1 418h94v-412q0 -99 54 -155.5t149 -56.5q94 0 148 56.5t54 155.5z" />
    <glyph glyph-name="umacron" unicode="&#x16b;" horiz-adv-x="617" 
d="M408 613h-199v56h199v-56zM459 226v324h89l-1 -327q0 -103 -65.5 -167t-172.5 -64q-108 0 -174 64t-66 167v327h89v-324q0 -69 41.5 -112.5t109.5 -43.5q67 0 108.5 43.5t41.5 112.5z" />
    <glyph glyph-name="Ubreve" unicode="&#x16c;" horiz-adv-x="759" 
d="M379 742q-43 0 -70.5 27.5t-31.5 77.5l59 8q3 -59 43 -59q18 0 30.5 15t13.5 44l59 -8q-4 -50 -31.5 -77.5t-71.5 -27.5zM582 288v412h94v-418q0 -136 -79 -214.5t-217 -78.5t-216.5 78.5t-79.5 214.5l-1 418h94v-412q0 -99 54 -155.5t149 -56.5q94 0 148 56.5t54 155.5z
" />
    <glyph glyph-name="ubreve" unicode="&#x16d;" horiz-adv-x="617" 
d="M308 592q-43 0 -70.5 27.5t-31.5 77.5l59 8q3 -59 43 -59q18 0 30.5 15t13.5 44l59 -8q-4 -50 -31.5 -77.5t-71.5 -27.5zM459 226v324h89l-1 -327q0 -103 -65.5 -167t-172.5 -64q-108 0 -174 64t-66 167v327h89v-324q0 -69 41.5 -112.5t109.5 -43.5q67 0 108.5 43.5
t41.5 112.5z" />
    <glyph glyph-name="Uring" unicode="&#x16e;" horiz-adv-x="759" 
d="M379 741q-38 0 -63.5 25.5t-25.5 62.5t25.5 62.5t63.5 25.5t64 -25.5t26 -62.5t-26 -62.5t-64 -25.5zM379 779q20 0 34 14.5t14 35.5t-14 35t-34 14t-33.5 -14t-13.5 -35t13.5 -35.5t33.5 -14.5zM582 288v412h94v-418q0 -136 -79 -214.5t-217 -78.5t-216.5 78.5
t-79.5 214.5l-1 418h94v-412q0 -99 54 -155.5t149 -56.5q94 0 148 56.5t54 155.5z" />
    <glyph glyph-name="uring" unicode="&#x16f;" horiz-adv-x="617" 
d="M308 591q-38 0 -63.5 25.5t-25.5 62.5t25.5 62.5t63.5 25.5t64 -25.5t26 -62.5t-26 -62.5t-64 -25.5zM308 629q20 0 34 14.5t14 35.5t-14 35t-34 14t-33.5 -14t-13.5 -35t13.5 -35.5t33.5 -14.5zM459 226v324h89l-1 -327q0 -103 -65.5 -167t-172.5 -64q-108 0 -174 64
t-66 167v327h89v-324q0 -69 41.5 -112.5t109.5 -43.5q67 0 108.5 43.5t41.5 112.5z" />
    <glyph glyph-name="Uhungarumlaut" unicode="&#x170;" horiz-adv-x="759" 
d="M355 886h60l-63 -136h-48zM446 886h60l-63 -136h-48zM582 288v412h94v-418q0 -136 -79 -214.5t-217 -78.5t-216.5 78.5t-79.5 214.5l-1 418h94v-412q0 -99 54 -155.5t149 -56.5q94 0 148 56.5t54 155.5z" />
    <glyph glyph-name="uhungarumlaut" unicode="&#x171;" horiz-adv-x="617" 
d="M284 736h60l-63 -136h-48zM375 736h60l-63 -136h-48zM459 226v324h89l-1 -327q0 -103 -65.5 -167t-172.5 -64q-108 0 -174 64t-66 167v327h89v-324q0 -69 41.5 -112.5t109.5 -43.5q67 0 108.5 43.5t41.5 112.5z" />
    <glyph glyph-name="Uogonek" unicode="&#x172;" horiz-adv-x="759" 
d="M582 288v412h94v-418q0 -136 -79 -214.5t-217 -78.5h-3q-40 -17 -63.5 -44t-23.5 -56q0 -28 16.5 -44t43.5 -16q43 0 71 52l36 -15q-35 -85 -119 -85q-46 0 -74.5 27.5t-28.5 70.5q0 73 79 115q-109 18 -169 93.5t-61 194.5l-1 418h94v-412q0 -99 54 -155.5t149 -56.5
q94 0 148 56.5t54 155.5z" />
    <glyph glyph-name="uogonek" unicode="&#x173;" horiz-adv-x="617" 
d="M459 226v324h89l-1 -327q0 -95 -56.5 -157.5t-151.5 -72.5q-37 -17 -58 -42.5t-21 -53.5t16.5 -44t43.5 -16q43 0 71 52l36 -15q-35 -85 -119 -85q-46 0 -74.5 27.5t-28.5 70.5q0 65 66 107q-92 12 -147 74t-55 155v327h89v-324q0 -69 41.5 -112.5t109.5 -43.5
q67 0 108.5 43.5t41.5 112.5z" />
    <glyph glyph-name="Wcircumflex" unicode="&#x174;" horiz-adv-x="1026" 
d="M405 783l108 99l108 -99l-44 -41l-64 66l-64 -66zM905 700h100v-7l-239 -693h-65l-188 542l-188 -542h-65l-239 693v7h100l176 -527l178 527h76l178 -527z" />
    <glyph glyph-name="wcircumflex" unicode="&#x175;" horiz-adv-x="826" 
d="M305 633l108 99l108 -99l-44 -41l-64 66l-64 -66zM573 148l142 402h92v-4l-200 -546h-53l-141 395l-141 -395h-53l-200 546v4h92l142 -402l139 402h42z" />
    <glyph glyph-name="Ycircumflex" unicode="&#x176;" horiz-adv-x="625" 
d="M204 783l108 99l108 -99l-44 -41l-64 66l-64 -66zM311 376l197 324h104v-5l-254 -410v-285h-94v285l-252 410v5h105z" />
    <glyph glyph-name="ycircumflex" unicode="&#x177;" horiz-adv-x="520" 
d="M333 602l-64 66l-64 -66l-44 41l108 99l108 -99zM266 130l146 420h92v-4l-219 -617q-41 -116 -97.5 -146.5t-153.5 -4.5l19 73q61 -13 93.5 5t55.5 85l22 65l-205 540v4h95z" />
    <glyph glyph-name="Ydieresis" unicode="&#x178;" horiz-adv-x="625" 
d="M246 753q-17 0 -29.5 12t-12.5 30q0 17 12.5 29.5t29.5 12.5q18 0 30 -12.5t12 -29.5q0 -18 -12 -30t-30 -12zM379 753q-18 0 -30 12t-12 30q0 17 12 29.5t30 12.5q17 0 29.5 -12.5t12.5 -29.5q0 -18 -12.5 -30t-29.5 -12zM311 376l197 324h104v-5l-254 -410v-285h-94
v285l-252 410v5h105z" />
    <glyph glyph-name="Zacute" unicode="&#x179;" horiz-adv-x="628" 
d="M261 750l81 116h106l-110 -116h-77zM57 700h524v-8l-403 -612h403v-80h-546v8l403 612h-381v80z" />
    <glyph glyph-name="zacute" unicode="&#x17a;" horiz-adv-x="503" 
d="M209 600l81 116h106l-110 -116h-77zM41 550h427v-8l-309 -467h312v-75h-441v8l309 467h-298v75z" />
    <glyph glyph-name="Zdotaccent" unicode="&#x17b;" horiz-adv-x="628" 
d="M315 753q-17 0 -29.5 12t-12.5 30q0 17 12.5 29.5t29.5 12.5q18 0 30 -12.5t12 -29.5q0 -18 -12 -30t-30 -12zM57 700h524v-8l-403 -612h403v-80h-546v8l403 612h-381v80z" />
    <glyph glyph-name="zdotaccent" unicode="&#x17c;" horiz-adv-x="503" 
d="M263 603q-17 0 -29.5 12t-12.5 30q0 17 12.5 29.5t29.5 12.5q18 0 30 -12.5t12 -29.5q0 -18 -12 -30t-30 -12zM41 550h427v-8l-309 -467h312v-75h-441v8l309 467h-298v75z" />
    <glyph glyph-name="Zcaron" unicode="&#x17d;" horiz-adv-x="628" 
d="M423 838l-108 -98l-108 98l44 42l64 -67l64 67zM57 700h524v-8l-403 -612h403v-80h-546v8l403 612h-381v80z" />
    <glyph glyph-name="zcaron" unicode="&#x17e;" horiz-adv-x="503" 
d="M371 688l-108 -98l-108 98l44 42l64 -67l64 67zM41 550h427v-8l-309 -467h312v-75h-441v8l309 467h-298v75z" />
    <glyph glyph-name="uni018F" unicode="&#x18f;" horiz-adv-x="796" 
d="M388 710q157 0 258 -101t101 -259t-101 -259.5t-258 -101.5q-166 0 -260.5 114t-75.5 294h596q-14 103 -85.5 166t-175.5 63q-62 0 -118 -26.5t-91 -70.5l-62 55q44 57 117 91.5t155 34.5zM387 76q110 0 182.5 69t80.5 181h-513q-1 -111 69 -180.5t181 -69.5z" />
    <glyph glyph-name="florin" unicode="&#x192;" horiz-adv-x="404" 
d="M422 743l-19 -71q-71 18 -102 -1t-35 -91l-8 -121h123v-70h-127l-28 -423q-8 -121 -64.5 -159.5t-180.5 2.5l19 71q72 -18 103 1t35 91l26 417h-115v70h120l8 127q8 122 63 159t182 -2z" />
    <glyph glyph-name="uni01CD" unicode="&#x1cd;" horiz-adv-x="672" 
d="M400 880l44 -42l-108 -98l-108 98l44 42l64 -67zM301 700h70l302 -694v-6h-97l-67 160h-346l-67 -160h-97v6zM336 572l-141 -337h282z" />
    <glyph glyph-name="uni01CE" unicode="&#x1ce;" horiz-adv-x="593" 
d="M363 741l44 -42l-108 -98l-108 98l44 42l64 -67zM288 561q116 0 179.5 -60.5t63.5 -184.5v-316h-91v56q-61 -66 -171 -66q-100 0 -164 53.5t-64 137.5t64 137.5t164 53.5q110 0 171 -66v10q0 86 -43 129.5t-123 43.5q-100 0 -181 -56l-30 61q96 67 225 67zM287 54
q70 0 113.5 36t43.5 92t-43.5 92t-113.5 36t-113.5 -36t-43.5 -92t43.5 -92t113.5 -36z" />
    <glyph glyph-name="uni01CF" unicode="&#x1cf;" horiz-adv-x="276" 
d="M246 838l-108 -98l-108 98l44 42l64 -67l64 67zM91 0v700h94v-700h-94z" />
    <glyph glyph-name="uni01D0" unicode="&#x1d0;" horiz-adv-x="241" 
d="M228 688l-108 -98l-108 98l44 42l64 -67l64 67zM165 0h-89v550h89v-550z" />
    <glyph glyph-name="uni01D1" unicode="&#x1d1;" horiz-adv-x="812" 
d="M514 849l-108 -98l-108 98l44 42l64 -67l64 67zM406 -11q-154 0 -255.5 102.5t-101.5 258.5t101.5 258.5t255.5 102.5t255.5 -102.5t101.5 -258.5t-101.5 -258.5t-255.5 -102.5zM406 77q114 0 188.5 77.5t74.5 195.5t-74.5 195.5t-188.5 77.5t-188.5 -77.5t-74.5 -195.5
t74.5 -195.5t188.5 -77.5z" />
    <glyph glyph-name="uni01D2" unicode="&#x1d2;" horiz-adv-x="637" 
d="M426 695l-108 -98l-108 98l44 42l64 -67l64 67zM318 -12q-121 0 -199 80.5t-78 206.5t78 206.5t199 80.5q122 0 200 -80.5t78 -206.5t-78 -206.5t-200 -80.5zM318 68q83 0 137.5 58.5t54.5 148.5t-54.5 148.5t-137.5 58.5t-137 -58.5t-54 -148.5t54 -148.5t137 -58.5z
" />
    <glyph glyph-name="uni01D3" unicode="&#x1d3;" horiz-adv-x="759" 
d="M487 838l-108 -98l-108 98l44 42l64 -67l64 67zM582 288v412h94v-418q0 -136 -79 -214.5t-217 -78.5t-216.5 78.5t-79.5 214.5l-1 418h94v-412q0 -99 54 -155.5t149 -56.5q94 0 148 56.5t54 155.5z" />
    <glyph glyph-name="uni01D4" unicode="&#x1d4;" horiz-adv-x="617" 
d="M416 688l-108 -98l-108 98l44 42l64 -67l64 67zM459 226v324h89l-1 -327q0 -103 -65.5 -167t-172.5 -64q-108 0 -174 64t-66 167v327h89v-324q0 -69 41.5 -112.5t109.5 -43.5q67 0 108.5 43.5t41.5 112.5z" />
    <glyph glyph-name="uni01D5" unicode="&#x1d5;" horiz-adv-x="759" 
d="M479 901h-199v56h199v-56zM313 753q-17 0 -29.5 12t-12.5 30q0 17 12.5 29.5t29.5 12.5q18 0 30 -12.5t12 -29.5q0 -18 -12 -30t-30 -12zM446 753q-18 0 -30 12t-12 30q0 17 12 29.5t30 12.5q17 0 29.5 -12.5t12.5 -29.5q0 -18 -12.5 -30t-29.5 -12zM582 288v412h94v-418
q0 -136 -79 -214.5t-217 -78.5t-216.5 78.5t-79.5 214.5l-1 418h94v-412q0 -99 54 -155.5t149 -56.5q94 0 148 56.5t54 155.5z" />
    <glyph glyph-name="uni01D6" unicode="&#x1d6;" horiz-adv-x="617" 
d="M408 751h-199v56h199v-56zM242 603q-17 0 -29.5 12t-12.5 30q0 17 12.5 29.5t29.5 12.5q18 0 30 -12.5t12 -29.5q0 -18 -12 -30t-30 -12zM375 603q-18 0 -30 12t-12 30q0 17 12 29.5t30 12.5q17 0 29.5 -12.5t12.5 -29.5q0 -18 -12.5 -30t-29.5 -12zM459 226v324h89
l-1 -327q0 -103 -65.5 -167t-172.5 -64q-108 0 -174 64t-66 167v327h89v-324q0 -69 41.5 -112.5t109.5 -43.5q67 0 108.5 43.5t41.5 112.5z" />
    <glyph glyph-name="uni01D7" unicode="&#x1d7;" horiz-adv-x="759" 
d="M325 888l81 116h106l-110 -116h-77zM313 753q-17 0 -29.5 12t-12.5 30q0 17 12.5 29.5t29.5 12.5q18 0 30 -12.5t12 -29.5q0 -18 -12 -30t-30 -12zM446 753q-18 0 -30 12t-12 30q0 17 12 29.5t30 12.5q17 0 29.5 -12.5t12.5 -29.5q0 -18 -12.5 -30t-29.5 -12zM582 288
v412h94v-418q0 -136 -79 -214.5t-217 -78.5t-216.5 78.5t-79.5 214.5l-1 418h94v-412q0 -99 54 -155.5t149 -56.5q94 0 148 56.5t54 155.5z" />
    <glyph glyph-name="uni01D8" unicode="&#x1d8;" horiz-adv-x="617" 
d="M254 738l81 116h106l-110 -116h-77zM242 603q-17 0 -29.5 12t-12.5 30q0 17 12.5 29.5t29.5 12.5q18 0 30 -12.5t12 -29.5q0 -18 -12 -30t-30 -12zM375 603q-18 0 -30 12t-12 30q0 17 12 29.5t30 12.5q17 0 29.5 -12.5t12.5 -29.5q0 -18 -12.5 -30t-29.5 -12zM459 226
v324h89l-1 -327q0 -103 -65.5 -167t-172.5 -64q-108 0 -174 64t-66 167v327h89v-324q0 -69 41.5 -112.5t109.5 -43.5q67 0 108.5 43.5t41.5 112.5z" />
    <glyph glyph-name="uni01D9" unicode="&#x1d9;" horiz-adv-x="759" 
d="M487 976l-108 -98l-108 98l44 42l64 -67l64 67zM313 753q-17 0 -29.5 12t-12.5 30q0 17 12.5 29.5t29.5 12.5q18 0 30 -12.5t12 -29.5q0 -18 -12 -30t-30 -12zM446 753q-18 0 -30 12t-12 30q0 17 12 29.5t30 12.5q17 0 29.5 -12.5t12.5 -29.5q0 -18 -12.5 -30t-29.5 -12z
M582 288v412h94v-418q0 -136 -79 -214.5t-217 -78.5t-216.5 78.5t-79.5 214.5l-1 418h94v-412q0 -99 54 -155.5t149 -56.5q94 0 148 56.5t54 155.5z" />
    <glyph glyph-name="uni01DA" unicode="&#x1da;" horiz-adv-x="617" 
d="M416 826l-108 -98l-108 98l44 42l64 -67l64 67zM242 603q-17 0 -29.5 12t-12.5 30q0 17 12.5 29.5t29.5 12.5q18 0 30 -12.5t12 -29.5q0 -18 -12 -30t-30 -12zM375 603q-18 0 -30 12t-12 30q0 17 12 29.5t30 12.5q17 0 29.5 -12.5t12.5 -29.5q0 -18 -12.5 -30t-29.5 -12z
M459 226v324h89l-1 -327q0 -103 -65.5 -167t-172.5 -64q-108 0 -174 64t-66 167v327h89v-324q0 -69 41.5 -112.5t109.5 -43.5q67 0 108.5 43.5t41.5 112.5z" />
    <glyph glyph-name="uni01DB" unicode="&#x1db;" horiz-adv-x="759" 
d="M247 1004h106l81 -116h-77zM313 753q-17 0 -29.5 12t-12.5 30q0 17 12.5 29.5t29.5 12.5q18 0 30 -12.5t12 -29.5q0 -18 -12 -30t-30 -12zM446 753q-18 0 -30 12t-12 30q0 17 12 29.5t30 12.5q17 0 29.5 -12.5t12.5 -29.5q0 -18 -12.5 -30t-29.5 -12zM582 288v412h94
v-418q0 -136 -79 -214.5t-217 -78.5t-216.5 78.5t-79.5 214.5l-1 418h94v-412q0 -99 54 -155.5t149 -56.5q94 0 148 56.5t54 155.5z" />
    <glyph glyph-name="uni01DC" unicode="&#x1dc;" horiz-adv-x="617" 
d="M176 854h106l81 -116h-77zM242 603q-17 0 -29.5 12t-12.5 30q0 17 12.5 29.5t29.5 12.5q18 0 30 -12.5t12 -29.5q0 -18 -12 -30t-30 -12zM375 603q-18 0 -30 12t-12 30q0 17 12 29.5t30 12.5q17 0 29.5 -12.5t12.5 -29.5q0 -18 -12.5 -30t-29.5 -12zM459 226v324h89
l-1 -327q0 -103 -65.5 -167t-172.5 -64q-108 0 -174 64t-66 167v327h89v-324q0 -69 41.5 -112.5t109.5 -43.5q67 0 108.5 43.5t41.5 112.5z" />
    <glyph glyph-name="Gcaron" unicode="&#x1e6;" horiz-adv-x="796" 
d="M471 889l44 -42l-108 -98l-108 98l44 42l64 -67zM426 397h318q19 -180 -75.5 -294t-260.5 -114q-157 0 -258 101.5t-101 259.5t101 259t258 101q82 0 155 -34.5t117 -91.5l-62 -55q-35 44 -91 70.5t-118 26.5q-116 0 -190 -77t-74 -199q0 -121 74 -197.5t190 -76.5
q110 0 179.5 68.5t69.5 178.5h-232v74z" />
    <glyph glyph-name="gcaron" unicode="&#x1e7;" horiz-adv-x="582" 
d="M337 739l44 -42l-108 -98l-108 98l44 42l64 -67zM578 558v-80q-67 0 -108 -22q27 -46 27 -103q0 -88 -62 -145.5t-157 -57.5q-62 0 -111 23q-32 -26 -32 -57q0 -53 97 -53h129q194 0 194 -148q0 -81 -64 -124t-184 -43q-179 0 -294 66l36 70q98 -56 258 -56t160 85
q0 42 -29 57.5t-91 15.5h-132q-83 0 -127.5 29t-44.5 83q0 65 67 113q-60 57 -60 142q0 90 63.5 148.5t160.5 58.5q91 0 155 -54q42 52 149 52zM278 226q58 0 95.5 36t37.5 91q0 57 -39 94t-98 37q-60 0 -99 -37t-39 -94q0 -56 40 -91.5t102 -35.5z" />
    <glyph glyph-name="uni01EA" unicode="&#x1ea;" horiz-adv-x="812" 
d="M404 -11q-40 -17 -63.5 -44t-23.5 -56q0 -28 16.5 -44t43.5 -16q43 0 71 52l36 -15q-35 -85 -119 -85q-46 0 -74.5 27.5t-28.5 70.5q0 73 79 115q-129 22 -210.5 120t-81.5 236q0 156 101.5 258.5t255.5 102.5t255.5 -102.5t101.5 -258.5t-101.5 -258.5t-255.5 -102.5h-2
zM143 350q0 -118 74.5 -195.5t188.5 -77.5t188.5 77.5t74.5 195.5t-74.5 195.5t-188.5 77.5t-188.5 -77.5t-74.5 -195.5z" />
    <glyph glyph-name="uni01EB" unicode="&#x1eb;" horiz-adv-x="637" 
d="M351 -10q-79 -39 -79 -97q0 -28 16.5 -44t43.5 -16q43 0 71 52l36 -15q-35 -85 -119 -85q-46 0 -74.5 27.5t-28.5 70.5q0 66 65 107q-107 12 -174 90.5t-67 194.5q0 126 78 206.5t199 80.5q122 0 200 -80.5t78 -206.5q0 -117 -68 -195.5t-177 -89.5zM127 275
q0 -90 54 -148.5t137 -58.5t137.5 58.5t54.5 148.5t-54.5 148.5t-137.5 58.5t-137 -58.5t-54 -148.5z" />
    <glyph glyph-name="Aringacute" unicode="&#x1fa;" horiz-adv-x="672" 
d="M358 1060h106l-110 -116h-77zM336 741q-38 0 -63.5 25.5t-25.5 62.5t25.5 62.5t63.5 25.5t64 -25.5t26 -62.5t-26 -62.5t-64 -25.5zM336 878q-20 0 -33.5 -14t-13.5 -35t13.5 -35.5t33.5 -14.5t34 14.5t14 35.5t-14 35t-34 14zM301 700h70l302 -694v-6h-97l-67 160h-346
l-67 -160h-97v6zM336 572l-141 -337h282z" />
    <glyph glyph-name="aringacute" unicode="&#x1fb;" horiz-adv-x="593" 
d="M321 921h106l-110 -116h-77zM299 602q-38 0 -63.5 25.5t-25.5 62.5t25.5 62.5t63.5 25.5t64 -25.5t26 -62.5t-26 -62.5t-64 -25.5zM299 739q-20 0 -33.5 -14t-13.5 -35t13.5 -35.5t33.5 -14.5t34 14.5t14 35.5t-14 35t-34 14zM288 561q116 0 179.5 -60.5t63.5 -184.5
v-316h-91v56q-61 -66 -171 -66q-100 0 -164 53.5t-64 137.5t64 137.5t164 53.5q110 0 171 -66v10q0 86 -43 129.5t-123 43.5q-100 0 -181 -56l-30 61q96 67 225 67zM287 54q70 0 113.5 36t43.5 92t-43.5 92t-113.5 36t-113.5 -36t-43.5 -92t43.5 -92t113.5 -36z" />
    <glyph glyph-name="AEacute" unicode="&#x1fc;" horiz-adv-x="1080" 
d="M617 866h106l-110 -116h-77zM1024 700v-80h-388v-220h342v-77h-342v-243h388v-80h-482v147h-343l-116 -147h-107v6l546 694h502zM542 584l-285 -363h285v363z" />
    <glyph glyph-name="aeacute" unicode="&#x1fd;" horiz-adv-x="1034" 
d="M531 716h106l-110 -116h-77zM724 559q133 0 206.5 -97t59.5 -223h-454q11 -76 62 -123t126 -47q96 0 152 79l68 -47q-80 -110 -220 -110q-116 0 -193 79v-70h-91v56q-61 -66 -171 -66q-100 0 -164 53.5t-64 137.5t64 137.5t164 53.5q110 0 171 -66v10q0 86 -43 129.5
t-123 43.5q-100 0 -181 -56l-30 61q96 67 225 67q161 0 216 -112q37 52 94 81t126 29zM724 480q-76 0 -128 -48.5t-61 -125.5h374q-7 73 -55.5 123.5t-129.5 50.5zM287 54q70 0 113.5 36t43.5 92t-43.5 92t-113.5 36t-113.5 -36t-43.5 -92t43.5 -92t113.5 -36z" />
    <glyph glyph-name="Oslashacute" unicode="&#x1fe;" horiz-adv-x="812" 
d="M433 877h106l-110 -116h-77zM755 700l-86 -100q94 -100 94 -250q0 -156 -101.5 -258.5t-255.5 -102.5q-118 0 -209 63l-45 -52h-95l86 100q-94 100 -94 250q0 156 101.5 258.5t255.5 102.5q120 0 209 -64l46 53h94zM143 350q0 -106 61 -180l352 408q-65 45 -150 45
q-114 0 -188.5 -77.5t-74.5 -195.5zM406 77q114 0 188.5 77.5t74.5 195.5q0 106 -60 180l-352 -409q64 -44 149 -44z" />
    <glyph glyph-name="oslashacute" unicode="&#x1ff;" horiz-adv-x="637" 
d="M345 723h106l-110 -116h-77zM593 550l-67 -78q70 -80 70 -197q0 -126 -78 -206.5t-200 -80.5q-93 0 -165 51l-34 -39h-75l67 77q-70 81 -70 198q0 126 78 206.5t199 80.5q95 0 167 -52l34 40h74zM127 275q0 -77 41 -132l262 304q-49 35 -112 35q-83 0 -137 -58.5
t-54 -148.5zM318 68q83 0 137.5 58.5t54.5 148.5q0 77 -41 132l-261 -304q48 -35 110 -35z" />
    <glyph glyph-name="uni0218" unicode="&#x218;" horiz-adv-x="629" 
d="M562 551l-80 -37q-47 116 -187 116q-67 0 -109 -25.5t-42 -80.5q0 -15 3.5 -27t12.5 -22.5t16.5 -18.5t25.5 -16t28.5 -13t35.5 -12.5t37 -11t42 -11.5q57 -15 93 -29t70.5 -37.5t50.5 -58t16 -81.5q0 -52 -23 -91.5t-61.5 -61.5t-83.5 -33t-94 -11q-103 0 -177 46
t-99 134l77 41q23 -71 77 -105.5t127 -34.5q71 0 117.5 27.5t46.5 84.5q0 56 -42.5 85t-138.5 55q-35 10 -48 13.5t-46.5 15t-49 20.5t-40.5 25.5t-36 33.5t-20.5 41.5t-9.5 53.5q0 95 71 140.5t177 45.5q102 0 168.5 -43t94.5 -117zM279 -229v171h71v-63l-25 -108h-46z" />
    <glyph glyph-name="uni0219" unicode="&#x219;" horiz-adv-x="518" 
d="M469 434l-74 -31q-16 40 -53 63.5t-91 23.5q-52 0 -85 -20t-33 -59q0 -17 8.5 -31t20 -23.5t34.5 -18t41 -13.5t49 -12q95 -23 143.5 -59.5t48.5 -108.5q0 -77 -65 -117t-153 -40t-149 35.5t-81 104.5l73 35q18 -52 60.5 -77t97.5 -25t92 21.5t37 64.5q0 40 -32.5 59.5
t-101.5 36.5q-34 8 -55.5 14.5t-54.5 20.5t-52 29.5t-34 41.5t-15 57q1 76 61.5 116t146.5 40q82 0 138 -35t78 -93zM226 -229v171h71v-63l-25 -108h-46z" />
    <glyph glyph-name="uni021A" unicode="&#x21a;" horiz-adv-x="631" 
d="M37 700h558v-80h-232v-620h-94v620h-232v80zM328 -218h-46v171h71v-63z" />
    <glyph glyph-name="uni021B" unicode="&#x21b;" horiz-adv-x="376" 
d="M297 77h49v-77h-79q-161 0 -161 164v316h-77v70h77v121l89 18v-139h136v-70h-136v-287q0 -61 23 -88.5t79 -27.5zM268 -218h-46v171h71v-63z" />
    <glyph glyph-name="uni0232" unicode="&#x232;" horiz-adv-x="625" 
d="M412 763h-199v56h199v-56zM311 376l197 324h104v-5l-254 -410v-285h-94v285l-252 410v5h105z" />
    <glyph glyph-name="uni0233" unicode="&#x233;" horiz-adv-x="520" 
d="M170 679h199v-56h-199v56zM266 130l146 420h92v-4l-219 -617q-41 -116 -97.5 -146.5t-153.5 -4.5l19 73q61 -13 93.5 5t55.5 85l22 65l-205 540v4h95z" />
    <glyph glyph-name="uni0237" unicode="&#x237;" horiz-adv-x="241" 
d="M-114 -215l32 65q42 -20 77 -20q40 0 60.5 27.5t20.5 96.5v596h89v-610q0 -193 -153 -193q-59 0 -126 38z" />
    <glyph glyph-name="uni0259" unicode="&#x259;" horiz-adv-x="624" 
d="M310 559q118 0 195.5 -81.5t77.5 -202.5q0 -122 -77.5 -203t-195.5 -81q-133 0 -207 97t-60 223h455q-11 76 -62 123t-126 47q-97 0 -152 -79l-68 47q80 110 220 110zM310 70q76 0 128 48.5t61 125.5h-374q7 -73 55.5 -123.5t129.5 -50.5z" />
    <glyph glyph-name="circumflex" unicode="&#x2c6;" horiz-adv-x="459" 
d="M112 633l108 99l108 -99l-44 -41l-64 66l-64 -66z" />
    <glyph glyph-name="caron" unicode="&#x2c7;" horiz-adv-x="459" 
d="M328 688l-108 -98l-108 98l44 42l64 -67l64 67z" />
    <glyph glyph-name="breve" unicode="&#x2d8;" horiz-adv-x="465" 
d="M267 705l59 -8q-4 -50 -31.5 -77.5t-71.5 -27.5q-43 0 -70.5 27.5t-31.5 77.5l59 8q3 -59 43 -59q18 0 30.5 15t13.5 44z" />
    <glyph glyph-name="dotaccent" unicode="&#x2d9;" horiz-adv-x="415" 
d="M195 603q-17 0 -29.5 12t-12.5 30q0 17 12.5 29.5t29.5 12.5q18 0 30 -12.5t12 -29.5q0 -18 -12 -30t-30 -12z" />
    <glyph glyph-name="ring" unicode="&#x2da;" horiz-adv-x="440" 
d="M213 591q-38 0 -63.5 25.5t-25.5 62.5t25.5 62.5t63.5 25.5t64 -25.5t26 -62.5t-26 -62.5t-64 -25.5zM213 629q21 0 34.5 14.5t13.5 35.5t-13.5 35t-34.5 14q-20 0 -33.5 -14t-13.5 -35t13.5 -35.5t33.5 -14.5z" />
    <glyph glyph-name="ogonek" unicode="&#x2db;" horiz-adv-x="412" 
d="M191 15l48 -13q-41 -17 -65 -44t-24 -57q0 -28 16 -44t43 -16q43 0 71 52l36 -15q-35 -85 -118 -85q-46 0 -74.5 27.5t-28.5 70.5q0 42 27 73.5t69 50.5z" />
    <glyph glyph-name="tilde" unicode="&#x2dc;" horiz-adv-x="466" 
d="M139 615l-31 32q34 51 79 51q25 0 46 -24t33 -24q24 0 44 29l32 -32q-30 -50 -77 -50q-25 0 -45.5 24.5t-34.5 24.5q-25 0 -46 -31z" />
    <glyph glyph-name="hungarumlaut" unicode="&#x2dd;" horiz-adv-x="476" 
d="M219 736h60l-63 -136h-48zM310 736h60l-63 -136h-48z" />
    <glyph glyph-name="gravecomb" unicode="&#x300;" 
d="M-363 716h106l81 -116h-77z" />
    <glyph glyph-name="acutecomb" unicode="&#x301;" 
d="M-289 600l81 116h106l-110 -116h-77z" />
    <glyph glyph-name="uni0302" unicode="&#x302;" 
d="M-328 633l108 99l108 -99l-44 -41l-64 66l-64 -66z" />
    <glyph glyph-name="tildecomb" unicode="&#x303;" 
d="M-310 615l-31 32q34 51 79 51q25 0 46 -24t33 -24q24 0 44 29l32 -32q-30 -50 -77 -50q-26 0 -46 24.5t-34 24.5q-25 0 -46 -31z" />
    <glyph glyph-name="uni0304" unicode="&#x304;" 
d="M-115 613h-199v56h199v-56z" />
    <glyph glyph-name="uni0306" unicode="&#x306;" 
d="M-180 705l59 -8q-4 -50 -31.5 -77.5t-71.5 -27.5q-43 0 -70.5 27.5t-31.5 77.5l59 8q3 -59 43 -59q18 0 30.5 15t13.5 44z" />
    <glyph glyph-name="uni0307" unicode="&#x307;" 
d="M-195 603q-17 0 -29.5 12t-12.5 30q0 17 12.5 29.5t29.5 12.5q18 0 30 -12.5t12 -29.5q0 -18 -12 -30t-30 -12z" />
    <glyph glyph-name="uni0308" unicode="&#x308;" 
d="M-295 603q-17 0 -29.5 12t-12.5 30q0 17 12.5 29.5t29.5 12.5q18 0 30 -12.5t12 -29.5q0 -18 -12 -30t-30 -12zM-162 603q-18 0 -30 12t-12 30q0 17 12 29.5t30 12.5q17 0 29.5 -12.5t12.5 -29.5q0 -18 -12.5 -30t-29.5 -12z" />
    <glyph glyph-name="uni030A" unicode="&#x30a;" 
d="M-209 591q-38 0 -63.5 25.5t-25.5 62.5t25.5 62.5t63.5 25.5t64 -25.5t26 -62.5t-26 -62.5t-64 -25.5zM-209 629q20 0 34 14.5t14 35.5t-14 35t-34 14t-33.5 -14t-13.5 -35t13.5 -35.5t33.5 -14.5z" />
    <glyph glyph-name="uni030B" unicode="&#x30b;" 
d="M-364 736h60l-63 -136h-48zM-273 736h60l-63 -136h-48z" />
    <glyph glyph-name="uni030C" unicode="&#x30c;" 
d="M-112 688l-108 -98l-108 98l44 42l64 -67l64 67z" />
    <glyph glyph-name="uni0312" unicode="&#x312;" 
d="M-145 745l-37 -150h-76l48 150h65z" />
    <glyph glyph-name="uni0326" unicode="&#x326;" 
d="M-318 -218v171h71v-63l-25 -108h-46z" />
    <glyph glyph-name="uni0327" unicode="&#x327;" 
d="M-174 5l-22 -63q59 -12 59 -61q0 -30 -22.5 -50t-63.5 -20q-52 0 -102 31l18 35q47 -26 79 -26q37 0 37 32t-58 42l25 86h50v-6z" />
    <glyph glyph-name="uni0328" unicode="&#x328;" 
d="M-208 15l47 -13q-41 -17 -65 -44t-24 -57q0 -28 16.5 -44t43.5 -16q43 0 71 52l36 -15q-35 -85 -119 -85q-46 0 -74.5 27.5t-28.5 70.5q0 42 27 73.5t70 50.5z" />
    <glyph glyph-name="uni0335" unicode="&#x335;" 
d="M-342 314v70h332v-70h-332z" />
    <glyph glyph-name="uni0336" unicode="&#x336;" 
d="M-642 251v66h631v-66h-631z" />
    <glyph glyph-name="uni0337" unicode="&#x337;" 
d="M-343 294l318 260v-89l-318 -261v90z" />
    <glyph glyph-name="uni0338" unicode="&#x338;" 
d="M-709 0l604 700h94l-603 -700h-95z" />
    <glyph glyph-name="uni0394" unicode="&#x394;" horiz-adv-x="633" 
d="M271 700h91l272 -700h-635zM316 590l-194 -514h389z" />
    <glyph glyph-name="uni03A9" unicode="&#x3a9;" horiz-adv-x="803" 
d="M754 360q0 -94 -43 -168.5t-115 -114.5h131v-77h-281v77q92 14 153 92t61 181q0 117 -74 193.5t-185 76.5q-112 0 -185 -76.5t-73 -193.5q0 -104 60.5 -182t151.5 -91v-77h-282v77h133q-72 40 -114.5 114.5t-42.5 168.5q0 150 99.5 249t252.5 99q152 0 252.5 -99
t100.5 -249z" />
    <glyph glyph-name="uni03BC" unicode="&#x3bc;" horiz-adv-x="699" 
d="M574 77h94v-77h-150v62q-57 -68 -157 -68q-134 0 -196 109v-303h-89v750h89v-300q0 -82 44.5 -132t117.5 -50q72 0 115 49.5t43 132.5v300h89v-473z" />
    <glyph glyph-name="pi" unicode="&#x3c0;" horiz-adv-x="649" 
d="M619 550v-77h-111v-332q0 -33 15 -48.5t52 -15.5h44v-77h-57q-74 0 -108 30.5t-34 94.5v348h-205v-473h-89v473h-97v77h590z" />
    <glyph glyph-name="uni0400" unicode="&#x400;" horiz-adv-x="629" 
d="M209 866h106l81 -116h-77zM573 700v-80h-388v-220h342v-77h-342v-243h388v-80h-482v700h482z" />
    <glyph glyph-name="uni0401" unicode="&#x401;" horiz-adv-x="629" 
d="M276 753q-17 0 -29.5 12t-12.5 30q0 17 12.5 29.5t29.5 12.5q18 0 30 -12.5t12 -29.5q0 -18 -12 -30t-30 -12zM409 753q-18 0 -30 12t-12 30q0 17 12 29.5t30 12.5q17 0 29.5 -12.5t12.5 -29.5q0 -18 -12.5 -30t-29.5 -12zM573 700v-80h-388v-220h342v-77h-342v-243h388
v-80h-482v700h482z" />
    <glyph glyph-name="uni0402" unicode="&#x402;" horiz-adv-x="828" 
d="M363 426h184q115 0 176.5 -54t61.5 -160q0 -102 -62 -157t-176 -55h-95v80h84q75 0 115 34t40 98q0 65 -40 99.5t-115 34.5h-173v-346h-94v620h-232v80h649v-80h-323v-194z" />
    <glyph glyph-name="uni0403" unicode="&#x403;" horiz-adv-x="589" 
d="M260 750l81 116h106l-110 -116h-77zM534 700v-80h-349v-620h-94v700h443z" />
    <glyph glyph-name="uni0404" unicode="&#x404;" horiz-adv-x="740" 
d="M406 77q68 0 124 29t91 81l79 -50q-48 -69 -125 -108.5t-169 -39.5q-154 0 -255.5 102.5t-101.5 258.5t101.5 258.5t255.5 102.5q92 0 168.5 -39.5t125.5 -108.5l-81 -48q-35 51 -90.5 79.5t-122.5 28.5q-104 0 -176 -65t-85 -169h318v-80h-317q13 -103 84.5 -167.5
t175.5 -64.5z" />
    <glyph glyph-name="uni0405" unicode="&#x405;" horiz-adv-x="629" 
d="M562 551l-80 -37q-47 116 -187 116q-67 0 -109 -25.5t-42 -80.5q0 -15 3.5 -27t12.5 -22.5t16.5 -18.5t25.5 -16t28.5 -13t35.5 -12.5t37 -11t42 -11.5q57 -15 93 -29t70.5 -37.5t50.5 -58t16 -81.5q0 -52 -23 -91.5t-61.5 -61.5t-83.5 -33t-94 -11q-103 0 -177 46
t-99 134l77 41q23 -71 77 -105.5t127 -34.5q71 0 117.5 27.5t46.5 84.5q0 56 -42.5 85t-138.5 55q-35 10 -48 13.5t-46.5 15t-49 20.5t-40.5 25.5t-36 33.5t-20.5 41.5t-9.5 53.5q0 95 71 140.5t177 45.5q102 0 168.5 -43t94.5 -117z" />
    <glyph glyph-name="uni0406" unicode="&#x406;" horiz-adv-x="276" 
d="M91 0v700h94v-700h-94z" />
    <glyph glyph-name="uni0407" unicode="&#x407;" horiz-adv-x="276" 
d="M71 753q-17 0 -29.5 12t-12.5 30q0 17 12.5 29.5t29.5 12.5q18 0 30 -12.5t12 -29.5q0 -18 -12 -30t-30 -12zM204 753q-18 0 -30 12t-12 30q0 17 12 29.5t30 12.5q17 0 29.5 -12.5t12.5 -29.5q0 -18 -12.5 -30t-29.5 -12zM91 0v700h94v-700h-94z" />
    <glyph glyph-name="uni0408" unicode="&#x408;" horiz-adv-x="519" 
d="M5 149l84 32q10 -50 44.5 -78.5t85.5 -28.5q57 0 89.5 35.5t32.5 98.5v492h94v-492q0 -103 -55.5 -160.5t-156.5 -57.5q-84 0 -141 40.5t-77 118.5z" />
    <glyph glyph-name="uni0409" unicode="&#x409;" horiz-adv-x="1094" 
d="M631 464h175q120 0 183.5 -61t63.5 -171q0 -107 -64 -169.5t-183 -62.5h-269v620h-297l-9 -298q-5 -135 -24.5 -203t-58.5 -93.5t-114 -25.5h-18v86h14q41 0 62 18t31 65.5t14 145.5l11 385h483v-236zM631 80h164q80 0 122.5 41.5t42.5 110.5q0 72 -42 112t-123 40h-164
v-304z" />
    <glyph glyph-name="uni040A" unicode="&#x40a;" horiz-adv-x="1123" 
d="M661 425h175q247 0 247 -213q0 -104 -63 -158t-184 -54h-269v345h-382v-345h-94v700h94v-275h382v275h94v-275zM661 80h163q166 0 166 132q0 133 -166 133h-163v-265z" />
    <glyph glyph-name="uni040B" unicode="&#x40b;" horiz-adv-x="850" 
d="M545 436q245 0 245 -235v-201h-94v201q0 80 -41.5 117.5t-127.5 37.5q-80 0 -164 -26v-330h-94v620h-232v80h653v-80h-327v-210q96 26 182 26z" />
    <glyph glyph-name="uni040C" unicode="&#x40c;" horiz-adv-x="643" 
d="M366 866h106l-110 -116h-77zM616 696l-236 -330l248 -362v-4h-100l-219 323h-124v-323h-94v700h94v-297h123l208 297h100v-4z" />
    <glyph glyph-name="uni040D" unicode="&#x40d;" horiz-adv-x="764" 
d="M248 861h106l81 -116h-77zM175 0h-84v700h92v-549l406 549h84v-700h-93v549z" />
    <glyph glyph-name="uni040E" unicode="&#x40e;" horiz-adv-x="617" 
d="M316 748q-154 0 -151 151h67q0 -92 84 -92t84 92h67q1 -73 -37 -112t-114 -39zM312 256l196 444h99v-5l-247 -529q-43 -93 -86 -130t-110 -37q-37 0 -78 16l12 75q28 -12 61 -12q34 0 57 19t49 69l-248 529v5h99z" />
    <glyph glyph-name="uni040F" unicode="&#x40f;" horiz-adv-x="752" 
d="M567 700h94v-700h-238v-163h-94v163h-238v700h94v-620h382v620z" />
    <glyph glyph-name="uni0410" unicode="&#x410;" horiz-adv-x="672" 
d="M301 700h70l302 -694v-6h-97l-67 160h-346l-67 -160h-97v6zM336 572l-141 -337h282z" />
    <glyph glyph-name="uni0411" unicode="&#x411;" horiz-adv-x="675" 
d="M185 417h221q112 0 169.5 -55t57.5 -154q0 -98 -57.5 -153t-169.5 -55h-315v700h474v-80h-380v-203zM185 80h211q147 0 147 128q0 129 -147 129h-211v-257z" />
    <glyph glyph-name="uni0412" unicode="&#x412;" horiz-adv-x="677" 
d="M515 373q54 -18 84.5 -64t30.5 -111q0 -93 -58.5 -145.5t-158.5 -52.5h-322v700h314q90 0 143 -49t53 -133q0 -106 -86 -145zM392 624h-210v-219h210q58 0 89.5 29t31.5 80t-32 80.5t-89 29.5zM182 76h219q65 0 102.5 35t37.5 95t-37 94.5t-103 34.5h-219v-259z" />
    <glyph glyph-name="uni0413" unicode="&#x413;" horiz-adv-x="589" 
d="M534 700v-80h-349v-620h-94v700h443z" />
    <glyph glyph-name="uni0414" unicode="&#x414;" horiz-adv-x="758" 
d="M651 700v-620h80v-243h-94v163h-523v-163h-94v243h28q56 0 77 47t25 192l12 381h489zM200 80h357v540h-304l-10 -284q-6 -189 -43 -256z" />
    <glyph glyph-name="uni0415" unicode="&#x415;" horiz-adv-x="629" 
d="M573 700v-80h-388v-220h342v-77h-342v-243h388v-80h-482v700h482z" />
    <glyph glyph-name="uni0416" unicode="&#x416;" horiz-adv-x="1011" 
d="M984 696l-222 -330l233 -362v-4h-97l-205 323h-141v-323h-94v323h-140l-205 -323h-97v4l233 362l-222 330v4h98l195 -297h138v297h94v-297h139l195 297h98v-4z" />
    <glyph glyph-name="uni0417" unicode="&#x417;" horiz-adv-x="628" 
d="M451 371q57 -17 93.5 -62.5t36.5 -111.5q0 -95 -71 -151t-201 -56q-104 0 -171.5 34.5t-97.5 89.5l67 43q54 -87 200 -87q86 0 134.5 35.5t48.5 99.5q0 58 -44.5 92.5t-120.5 34.5h-116v71h112q66 0 104.5 30t38.5 81q0 53 -43 84.5t-119 31.5q-69 0 -113 -20t-78 -62
l-60 46q83 116 255 116q117 0 183 -52t66 -137q0 -55 -28.5 -93.5t-75.5 -56.5z" />
    <glyph glyph-name="uni0418" unicode="&#x418;" horiz-adv-x="764" 
d="M175 0h-84v700h92v-549l406 549h84v-700h-93v549z" />
    <glyph glyph-name="uni0419" unicode="&#x419;" horiz-adv-x="764" 
d="M381 743q-154 0 -151 151h67q0 -92 84 -92t84 92h67q1 -73 -37 -112t-114 -39zM183 151l406 549h84v-700h-93v549l-405 -549h-84v700h92v-549z" />
    <glyph glyph-name="uni041A" unicode="&#x41a;" horiz-adv-x="643" 
d="M616 696l-236 -330l248 -362v-4h-100l-219 323h-124v-323h-94v700h94v-297h123l208 297h100v-4z" />
    <glyph glyph-name="uni041B" unicode="&#x41b;" horiz-adv-x="732" 
d="M641 700v-700h-94v620h-306l-10 -298q-5 -135 -25.5 -203t-61 -93.5t-117.5 -25.5h-11v86h9q63 0 85 43.5t27 185.5l13 385h491z" />
    <glyph glyph-name="uni041C" unicode="&#x41c;" horiz-adv-x="914" 
d="M457 301l284 399h82v-700h-91v534l-263 -364h-25l-262 364v-534h-91v700h82z" />
    <glyph glyph-name="uni041D" unicode="&#x41d;" horiz-adv-x="752" 
d="M567 405v295h94v-700h-94v325h-382v-325h-94v700h94v-295h382z" />
    <glyph glyph-name="uni041E" unicode="&#x41e;" horiz-adv-x="812" 
d="M406 -11q-154 0 -255.5 102.5t-101.5 258.5t101.5 258.5t255.5 102.5t255.5 -102.5t101.5 -258.5t-101.5 -258.5t-255.5 -102.5zM406 77q114 0 188.5 77.5t74.5 195.5t-74.5 195.5t-188.5 77.5t-188.5 -77.5t-74.5 -195.5t74.5 -195.5t188.5 -77.5z" />
    <glyph glyph-name="uni041F" unicode="&#x41f;" horiz-adv-x="752" 
d="M185 0h-94v700h570v-700h-94v620h-382v-620z" />
    <glyph glyph-name="uni0420" unicode="&#x420;" horiz-adv-x="651" 
d="M91 700h271q113 0 176.5 -62.5t63.5 -168.5q0 -108 -63 -169.5t-177 -61.5h-177v-238h-94v700zM185 318h165q75 0 116.5 40t41.5 111q0 68 -42 109.5t-116 41.5h-165v-302z" />
    <glyph glyph-name="uni0421" unicode="&#x421;" horiz-adv-x="686" 
d="M405 73q57 0 109.5 21.5t78.5 53.5l57 -60q-38 -47 -103.5 -73t-146.5 -26q-150 0 -250.5 103.5t-100.5 257.5t100.5 257.5t250.5 103.5q81 0 146.5 -26t103.5 -73l-57 -60q-26 32 -78.5 53.5t-109.5 21.5q-113 0 -189 -79t-76 -198t76 -198t189 -79z" />
    <glyph glyph-name="uni0422" unicode="&#x422;" horiz-adv-x="631" 
d="M37 700h558v-80h-232v-620h-94v620h-232v80z" />
    <glyph glyph-name="uni0423" unicode="&#x423;" horiz-adv-x="617" 
d="M312 256l196 444h99v-5l-247 -529q-43 -93 -86 -130t-110 -37q-37 0 -78 16l12 75q28 -12 61 -12q34 0 57 19t49 69l-248 529v5h99z" />
    <glyph glyph-name="uni0424" unicode="&#x424;" horiz-adv-x="944" 
d="M895 350q0 -153 -99 -239t-277 -88v-89h-94v89q-178 3 -277 88.5t-99 238.5t99 238.5t277 88.5v89h94v-89q178 -3 277 -88.5t99 -238.5zM143 350q0 -118 73 -180.5t210 -64.5v490q-137 -2 -210 -64.5t-73 -180.5zM518 595v-490q138 2 210.5 64t72.5 181t-72.5 181
t-210.5 64z" />
    <glyph glyph-name="uni0425" unicode="&#x425;" horiz-adv-x="684" 
d="M668 4v-4h-108l-218 297l-219 -297h-107l1 4l264 357l-249 335v4h107l203 -274l202 274h108v-4l-249 -335z" />
    <glyph glyph-name="uni0426" unicode="&#x426;" horiz-adv-x="766" 
d="M658 700v-620h81v-243h-94v163h-554v700h94v-620h379v620h94z" />
    <glyph glyph-name="uni0427" unicode="&#x427;" horiz-adv-x="669" 
d="M57 695h94v-201q0 -80 41.5 -118.5t127.5 -38.5q76 0 164 24v334h94v-695h-94v281q-89 -24 -175 -24q-252 0 -252 237v201z" />
    <glyph glyph-name="uni0428" unicode="&#x428;" horiz-adv-x="1076" 
d="M891 80v620h94v-700h-894v700h94v-620h306v620h94v-620h306z" />
    <glyph glyph-name="uni0429" unicode="&#x429;" horiz-adv-x="1093" 
d="M985 700v-620h80v-243h-94v163h-880v700h94v-620h306v620h94v-620h306v620h94z" />
    <glyph glyph-name="uni042A" unicode="&#x42a;" horiz-adv-x="825" 
d="M363 464h175q119 0 183 -61.5t64 -170.5q0 -107 -64.5 -169.5t-182.5 -62.5h-269v620h-232v80h326v-236zM363 80h163q80 0 123 41.5t43 110.5q0 72 -42.5 112t-123.5 40h-163v-304z" />
    <glyph glyph-name="uni042B" unicode="&#x42b;" horiz-adv-x="906" 
d="M360 0h-269v700h94v-236h175q119 0 183 -61.5t64 -170.5q0 -107 -64.5 -169.5t-182.5 -62.5zM721 0v700h94v-700h-94zM185 384v-304h164q80 0 122.5 41.5t42.5 110.5q0 72 -42.5 112t-122.5 40h-164z" />
    <glyph glyph-name="uni042C" unicode="&#x42c;" horiz-adv-x="648" 
d="M360 0h-269v700h94v-236h175q119 0 183 -61.5t64 -170.5q0 -107 -64.5 -169.5t-182.5 -62.5zM185 384v-304h164q80 0 122.5 41.5t42.5 110.5q0 72 -42.5 112t-122.5 40h-164z" />
    <glyph glyph-name="uni042D" unicode="&#x42d;" horiz-adv-x="740" 
d="M334 711q154 0 255.5 -102.5t101.5 -258.5t-101.5 -258.5t-255.5 -102.5q-92 0 -169 39.5t-125 108.5l79 50q35 -52 91 -81t124 -29q104 0 175.5 64.5t84.5 167.5h-317v80h318q-13 104 -85 169t-176 65q-67 0 -122.5 -28.5t-90.5 -79.5l-81 48q49 69 125.5 108.5
t168.5 39.5z" />
    <glyph glyph-name="uni042E" unicode="&#x42e;" horiz-adv-x="1053" 
d="M656 711q153 0 250.5 -102t97.5 -259t-97.5 -259t-250.5 -102q-144 0 -239.5 91.5t-106.5 235.5h-125v-316h-94v700h94v-304h126q15 140 109.5 227.5t235.5 87.5zM656 77q113 0 183.5 77t70.5 196t-70.5 196t-183.5 77q-112 0 -182.5 -77t-70.5 -196t70.5 -196t182.5 -77
z" />
    <glyph glyph-name="uni042F" unicode="&#x42f;" horiz-adv-x="661" 
d="M272 700h298v-700h-94v274h-190l-148 -274h-98v6l155 277q-71 19 -110.5 72.5t-39.5 131.5q0 98 61 155.5t166 57.5zM283 354h193v266h-193q-66 0 -105 -36.5t-39 -96.5t39 -96.5t105 -36.5z" />
    <glyph glyph-name="uni0430" unicode="&#x430;" horiz-adv-x="593" 
d="M288 561q116 0 179.5 -60.5t63.5 -184.5v-316h-91v56q-61 -66 -171 -66q-100 0 -164 53.5t-64 137.5t64 137.5t164 53.5q110 0 171 -66v10q0 86 -43 129.5t-123 43.5q-100 0 -181 -56l-30 61q96 67 225 67zM287 54q70 0 113.5 36t43.5 92t-43.5 92t-113.5 36t-113.5 -36
t-43.5 -92t43.5 -92t113.5 -36z" />
    <glyph glyph-name="uni0431" unicode="&#x431;" horiz-adv-x="627" 
d="M324 516q112 0 187 -70t75 -191q0 -123 -76.5 -195t-196.5 -72t-196 72.5t-76 198.5v35q0 137 44.5 222.5t159.5 125.5l76 27q63 22 84.5 38t27.5 43h83q-6 -51 -34.5 -83t-106.5 -57l-77 -25q-82 -26 -122.5 -67.5t-52.5 -106.5q28 48 80.5 76.5t120.5 28.5zM313 68
q82 0 134 50.5t52 136.5t-51.5 136.5t-134.5 50.5q-82 0 -134 -50.5t-52 -136.5t52 -136.5t134 -50.5z" />
    <glyph glyph-name="uni0432" unicode="&#x432;" horiz-adv-x="587" 
d="M450 284q44 -14 67 -49t23 -82q0 -71 -44.5 -112t-130.5 -41h-289v550h286q76 0 117 -38.5t41 -107.5q0 -90 -70 -120zM335 488h-170v-174h170q99 0 99 87t-99 87zM165 64h175q57 0 84.5 25t27.5 67q0 43 -27.5 68t-84.5 25h-175v-185z" />
    <glyph glyph-name="uni0433" unicode="&#x433;" horiz-adv-x="454" 
d="M165 0h-89v550h353v-80h-264v-470z" />
    <glyph glyph-name="uni0434" unicode="&#x434;" horiz-adv-x="615" 
d="M530 549l-1 -469h72v-225h-87v145h-419v-145h-86v225h25q42 0 57 43.5t19 171.5l7 254h413zM166 80h274l1 390h-238l-4 -161q-5 -167 -33 -229z" />
    <glyph glyph-name="uni0435" unicode="&#x435;" horiz-adv-x="624" 
d="M314 559q133 0 207 -97t60 -223h-455q11 -76 62 -123t126 -47q97 0 152 79l68 -47q-80 -110 -220 -110q-118 0 -195.5 81.5t-77.5 202.5q0 122 77.5 203t195.5 81zM314 480q-76 0 -128 -48.5t-61 -125.5h374q-7 73 -55.5 123.5t-129.5 50.5z" />
    <glyph glyph-name="uni0436" unicode="&#x436;" horiz-adv-x="823" 
d="M808 547l-188 -269l195 -275v-3h-94l-166 237h-99v-237h-88v237h-100l-166 -237h-94v3l195 275l-188 269v3h98l159 -233h95v232h89v-232h95l159 233h98v-3z" />
    <glyph glyph-name="uni0437" unicode="&#x437;" horiz-adv-x="533" 
d="M394 284q92 -32 92 -133q0 -75 -57.5 -118t-170.5 -43q-191 0 -230 128l81 20q10 -35 48.5 -57t98.5 -22q68 0 104.5 26t36.5 70q0 40 -30 66t-87 26h-74v70h74q52 0 78.5 23t26.5 63q0 41 -33.5 65.5t-98.5 24.5q-119 0 -143 -77l-76 12q11 60 68 96t156 36
q103 0 158 -42.5t55 -112.5q0 -43 -20.5 -75t-56.5 -46z" />
    <glyph glyph-name="uni0438" unicode="&#x438;" horiz-adv-x="629" 
d="M172 0h-96v550h89v-405l292 405h96v-550h-89l1 405z" />
    <glyph glyph-name="uni0439" unicode="&#x439;" horiz-adv-x="629" 
d="M318 618q-154 0 -151 151h67q0 -92 84 -92t84 92h67q1 -73 -37 -112t-114 -39zM165 145l292 405h96v-550h-89l1 405l-293 -405h-96v550h89v-405z" />
    <glyph glyph-name="uni043A" unicode="&#x43a;" horiz-adv-x="532" 
d="M517 547l-188 -269l196 -275v-3h-96l-166 237h-98v-237h-89v549h89v-232h94l159 233h99v-3z" />
    <glyph glyph-name="uni043B" unicode="&#x43b;" horiz-adv-x="602" 
d="M41 0h-29v82h13q46 0 63 43.5t20 169.5l7 254h411v-549h-89l1 470h-237l-5 -177q-4 -169 -35 -231t-120 -62z" />
    <glyph glyph-name="uni043C" unicode="&#x43c;" horiz-adv-x="779" 
d="M387 211l222 339h94l-1 -550h-89l1 407l-203 -303h-45l-201 302v-406h-89v550h95z" />
    <glyph glyph-name="uni043D" unicode="&#x43d;" horiz-adv-x="629" 
d="M465 330v219h88v-549h-89v251h-299v-251h-89v549h89v-219h300z" />
    <glyph glyph-name="uni043E" unicode="&#x43e;" horiz-adv-x="637" 
d="M318 -12q-121 0 -199 80.5t-78 206.5t78 206.5t199 80.5q122 0 200 -80.5t78 -206.5t-78 -206.5t-200 -80.5zM318 68q83 0 137.5 58.5t54.5 148.5t-54.5 148.5t-137.5 58.5t-137 -58.5t-54 -148.5t54 -148.5t137 -58.5z" />
    <glyph glyph-name="uni043F" unicode="&#x43f;" horiz-adv-x="633" 
d="M165 0h-89v549h481l-1 -549h-89l1 470h-303v-470z" />
    <glyph glyph-name="uni0440" unicode="&#x440;" horiz-adv-x="669" 
d="M374 558q110 0 182 -81t72 -202t-72 -202t-182 -81q-69 0 -123 31.5t-86 88.5v-312h-89v750h89v-112q32 57 86 88.5t123 31.5zM356 69q80 0 132 58.5t52 147.5t-52 147.5t-132 58.5q-82 0 -136.5 -59t-54.5 -147t54.5 -147t136.5 -59z" />
    <glyph glyph-name="uni0441" unicode="&#x441;" horiz-adv-x="595" 
d="M41 275q0 125 77.5 205t198.5 80q80 0 143.5 -40.5t93.5 -106.5l-71 -36q-25 47 -68 75.5t-98 28.5q-84 0 -137.5 -58t-53.5 -148t53.5 -148t137.5 -58q56 0 99.5 28.5t66.5 76.5l71 -37q-30 -66 -93.5 -106.5t-143.5 -40.5q-121 0 -198.5 80t-77.5 205z" />
    <glyph glyph-name="uni0442" unicode="&#x442;" horiz-adv-x="523" 
d="M495 550v-80h-189v-470h-89v470h-190v80h468z" />
    <glyph glyph-name="uni0443" unicode="&#x443;" horiz-adv-x="520" 
d="M266 130l146 420h92v-4l-219 -617q-41 -116 -97.5 -146.5t-153.5 -4.5l19 73q61 -13 93.5 5t55.5 85l22 65l-205 540v4h95z" />
    <glyph glyph-name="uni0444" unicode="&#x444;" horiz-adv-x="853" 
d="M610 562q93 0 147.5 -79.5t54.5 -207.5t-54.5 -207.5t-147.5 -79.5q-85 0 -139 78v-266h-89v266q-54 -78 -140 -78q-92 0 -146.5 79.5t-54.5 207.5t54.5 207.5t146.5 79.5q88 0 140 -76v264h89v-263q53 75 139 75zM257 68q63 0 96.5 57t33.5 150t-33.5 150t-96.5 57
q-61 0 -95.5 -57t-34.5 -150t34.5 -150t95.5 -57zM595 68q62 0 96.5 57t34.5 150t-34.5 150t-96.5 57t-95.5 -57t-33.5 -150t33.5 -150t95.5 -57z" />
    <glyph glyph-name="uni0445" unicode="&#x445;" horiz-adv-x="541" 
d="M539 3v-3h-101l-167 221l-168 -221h-100v3l211 282l-194 262v3h101l150 -207l150 207h100v-3l-194 -262z" />
    <glyph glyph-name="uni0446" unicode="&#x446;" horiz-adv-x="637" 
d="M551 549v-469h72v-225h-87v145h-460v549h89v-469h297l1 469h88z" />
    <glyph glyph-name="uni0447" unicode="&#x447;" horiz-adv-x="569" 
d="M404 290v260h89v-550h-89v213q-81 -17 -143 -17q-109 0 -160.5 47.5t-51.5 151.5v155h89v-145q0 -71 33.5 -100.5t106.5 -29.5q55 0 126 15z" />
    <glyph glyph-name="uni0448" unicode="&#x448;" horiz-adv-x="884" 
d="M808 0h-732v549h89v-469h233v469h88v-469h233l1 469h88v-549z" />
    <glyph glyph-name="uni0449" unicode="&#x449;" horiz-adv-x="894" 
d="M808 549v-469h72v-225h-87v145h-717v549h89v-469h233v469h88v-469h233l1 469h88z" />
    <glyph glyph-name="uni044A" unicode="&#x44a;" horiz-adv-x="681" 
d="M306 348h165q88 0 135.5 -44.5t47.5 -129.5t-47.5 -129.5t-135.5 -44.5h-254v470h-190v80h279v-202zM306 74h145q54 0 84 25t30 75t-30.5 76t-83.5 26h-145v-202z" />
    <glyph glyph-name="uni044B" unicode="&#x44b;" horiz-adv-x="778" 
d="M330 0h-254v550h89v-202h165q88 0 135.5 -44.5t47.5 -129.5t-47.5 -129.5t-135.5 -44.5zM702 0h-89v550h89v-550zM165 276v-202h145q53 0 83.5 25t30.5 75t-30.5 76t-83.5 26h-145z" />
    <glyph glyph-name="uni044C" unicode="&#x44c;" horiz-adv-x="540" 
d="M330 0h-254v550h89v-202h165q88 0 135.5 -44.5t47.5 -129.5t-47.5 -129.5t-135.5 -44.5zM165 276v-202h145q53 0 83.5 25t30.5 75t-30.5 76t-83.5 26h-145z" />
    <glyph glyph-name="uni044D" unicode="&#x44d;" horiz-adv-x="558" 
d="M240 562q121 0 199 -80.5t78 -206.5t-78 -206.5t-199 -80.5q-130 0 -207 97l67 47q52 -64 140 -64q75 0 127 49t62 127h-246v74h244q-13 73 -64 118.5t-123 45.5q-85 0 -140 -61l-69 49q37 42 91.5 67t117.5 25z" />
    <glyph glyph-name="uni044E" unicode="&#x44e;" horiz-adv-x="843" 
d="M534 562q118 0 193 -80.5t75 -206.5t-75 -206.5t-193 -80.5q-107 0 -180 68.5t-85 179.5h-104v-236h-89v550h89v-234h104q13 110 85.5 178t179.5 68zM534 68q79 0 130 58.5t51 148.5t-51 148.5t-130 58.5t-130 -58.5t-51 -148.5t51 -148.5t130 -58.5z" />
    <glyph glyph-name="uni044F" unicode="&#x44f;" horiz-adv-x="560" 
d="M483 550l1 -550h-89v205h-136l-120 -205h-96v3l125 209q-121 28 -121 166q0 83 47.5 127.5t135.5 44.5h253zM249 279h146v198h-146q-53 0 -83 -25t-30 -74t30 -74t83 -25z" />
    <glyph glyph-name="uni0450" unicode="&#x450;" horiz-adv-x="624" 
d="M288 725l81 -116h-77l-110 116h106zM314 559q133 0 207 -97t60 -223h-455q11 -76 62 -123t126 -47q97 0 152 79l68 -47q-80 -110 -220 -110q-118 0 -195.5 81.5t-77.5 202.5q0 122 77.5 203t195.5 81zM314 480q-76 0 -128 -48.5t-61 -125.5h374q-7 73 -55.5 123.5
t-129.5 50.5z" />
    <glyph glyph-name="uni0451" unicode="&#x451;" horiz-adv-x="624" 
d="M248 612q-17 0 -29.5 12t-12.5 30q0 17 12.5 29.5t29.5 12.5q18 0 30 -12.5t12 -29.5q0 -18 -12 -30t-30 -12zM381 612q-18 0 -30 12t-12 30q0 17 12 29.5t30 12.5q17 0 29.5 -12.5t12.5 -29.5q0 -18 -12.5 -30t-29.5 -12zM314 559q133 0 207 -97t60 -223h-455
q11 -76 62 -123t126 -47q97 0 152 79l68 -47q-80 -110 -220 -110q-118 0 -195.5 81.5t-77.5 202.5q0 122 77.5 203t195.5 81zM314 480q-76 0 -128 -48.5t-61 -125.5h374q-7 73 -55.5 123.5t-129.5 50.5z" />
    <glyph glyph-name="uni0452" unicode="&#x452;" horiz-adv-x="641" 
d="M361 496q101 0 159 -68.5t58 -187.5v-300q0 -193 -162 -193q-46 0 -114 17l22 73q39 -7 70 -7q48 0 71.5 27.5t23.5 96.5v286q0 82 -43 131.5t-115 49.5q-73 0 -117.5 -49.5t-44.5 -131.5v-240h-89v583h-91v74h91v93h89v-93h232v-74h-232v-196q60 109 192 109z" />
    <glyph glyph-name="uni0453" unicode="&#x453;" horiz-adv-x="454" 
d="M200 605l81 116h106l-110 -116h-77zM165 0h-89v550h353v-80h-264v-470z" />
    <glyph glyph-name="uni0454" unicode="&#x454;" horiz-adv-x="558" 
d="M318 68q88 0 140 64l67 -47q-77 -97 -207 -97q-121 0 -199 80.5t-78 206.5t78 206.5t199 80.5q63 0 117.5 -25t91.5 -67l-69 -49q-55 61 -140 61q-72 0 -123 -45.5t-64 -118.5h244v-74h-246q10 -78 62 -127t127 -49z" />
    <glyph glyph-name="uni0455" unicode="&#x455;" horiz-adv-x="518" 
d="M469 434l-74 -31q-16 40 -53 63.5t-91 23.5q-52 0 -85 -20t-33 -59q0 -17 8.5 -31t20 -23.5t34.5 -18t41 -13.5t49 -12q95 -23 143.5 -59.5t48.5 -108.5q0 -77 -65 -117t-153 -40t-149 35.5t-81 104.5l73 35q18 -52 60.5 -77t97.5 -25t92 21.5t37 64.5q0 40 -32.5 59.5
t-101.5 36.5q-34 8 -55.5 14.5t-54.5 20.5t-52 29.5t-34 41.5t-15 57q1 76 61.5 116t146.5 40q82 0 138 -35t78 -93z" />
    <glyph glyph-name="uni0456" unicode="&#x456;" horiz-adv-x="241" 
d="M120 637q-25 0 -42.5 18t-17.5 43t17.5 42.5t42.5 17.5t43 -17.5t18 -42.5q0 -26 -17.5 -43.5t-43.5 -17.5zM165 0h-89v550h89v-550z" />
    <glyph glyph-name="uni0457" unicode="&#x457;" horiz-adv-x="241" 
d="M54 603q-17 0 -29.5 12t-12.5 30q0 17 12.5 29.5t29.5 12.5q18 0 30 -12.5t12 -29.5q0 -18 -12 -30t-30 -12zM187 603q-18 0 -30 12t-12 30q0 17 12 29.5t30 12.5q17 0 29.5 -12.5t12.5 -29.5q0 -18 -12.5 -30t-29.5 -12zM165 0h-89v550h89v-550z" />
    <glyph glyph-name="uni0458" unicode="&#x458;" horiz-adv-x="237" 
d="M117 637q-25 0 -43 17.5t-18 43.5q0 25 17.5 42t43.5 17q25 0 42.5 -17t17.5 -42q0 -26 -17.5 -43.5t-42.5 -17.5zM-118 -215l32 65q42 -20 78 -20q40 0 60 27.5t20 96.5v596h89v-610q0 -193 -152 -193q-58 0 -127 38z" />
    <glyph glyph-name="uni0459" unicode="&#x459;" horiz-adv-x="907" 
d="M526 348h171q88 0 135.5 -44.5t47.5 -129.5t-47.5 -129.5t-135.5 -44.5h-260l1 470h-237l-5 -177q-4 -169 -35 -231t-120 -62h-29v82h13q46 0 63 43.5t20 169.5l7 254h411v-201zM526 74h151q54 0 84 25t30 75t-30.5 76t-83.5 26h-151v-202z" />
    <glyph glyph-name="uni045A" unicode="&#x45a;" horiz-adv-x="930" 
d="M553 341h167q88 0 135.5 -43t47.5 -127t-47.5 -127.5t-135.5 -43.5h-256v266h-299v-266h-89v549h89v-208h300v208h88v-208zM553 74h148q113 0 113 96t-113 96h-148v-192z" />
    <glyph glyph-name="uni045B" unicode="&#x45b;" horiz-adv-x="641" 
d="M361 496q101 0 159 -68.5t58 -187.5v-240h-89v240q0 82 -43 131.5t-115 49.5q-73 0 -117.5 -49.5t-44.5 -131.5v-240h-89v583h-91v74h91v93h89v-93h232v-74h-232v-196q60 109 192 109z" />
    <glyph glyph-name="uni045C" unicode="&#x45c;" horiz-adv-x="532" 
d="M310 716h106l-110 -116h-77zM517 547l-188 -269l196 -275v-3h-96l-166 237h-98v-237h-89v549h89v-232h94l159 233h99v-3z" />
    <glyph glyph-name="uni045D" unicode="&#x45d;" horiz-adv-x="629" 
d="M185 736h106l81 -116h-77zM172 0h-96v550h89v-405l292 405h96v-550h-89l1 405z" />
    <glyph glyph-name="uni045E" unicode="&#x45e;" horiz-adv-x="520" 
d="M270 608q-154 0 -151 151h67q0 -92 84 -92t84 92h67q1 -73 -37 -112t-114 -39zM266 130l146 420h92v-4l-219 -617q-41 -116 -97.5 -146.5t-153.5 -4.5l19 73q61 -13 93.5 5t55.5 85l22 65l-205 540v4h95z" />
    <glyph glyph-name="uni045F" unicode="&#x45f;" horiz-adv-x="627" 
d="M463 549h88v-549h-194v-145h-86v145h-195v549h89v-469h297z" />
    <glyph glyph-name="uni0462" unicode="&#x462;" horiz-adv-x="729" 
d="M275 399h177q114 0 174.5 -50.5t60.5 -149.5t-60.5 -149t-174.5 -50h-271v516h-144v80h144v104h94v-104h265v-80h-265v-117zM275 80h167q151 0 151 119q0 120 -151 120h-167v-239z" />
    <glyph glyph-name="uni0463" unicode="&#x463;" horiz-adv-x="551" 
d="M169 348h172q87 0 134.5 -44.5t47.5 -129.5t-47.5 -129.5t-134.5 -44.5h-261v506h-91v74h91v170h89v-170h232v-74h-232v-158zM169 74h152q53 0 83.5 25t30.5 75t-30.5 76t-83.5 26h-152v-202z" />
    <glyph glyph-name="uni0490" unicode="&#x490;" horiz-adv-x="589" 
d="M440 700v163h94v-243h-349v-620h-94v700h349z" />
    <glyph glyph-name="uni0491" unicode="&#x491;" horiz-adv-x="454" 
d="M343 550v145h86v-225h-264v-470h-89v550h267z" />
    <glyph glyph-name="uni04C1" unicode="&#x4c1;" horiz-adv-x="1011" 
d="M506 748q-154 0 -151 151h67q0 -92 84 -92t84 92h67q1 -73 -37 -112t-114 -39zM984 696l-222 -330l233 -362v-4h-97l-205 323h-141v-323h-94v323h-140l-205 -323h-97v4l233 362l-222 330v4h98l195 -297h138v297h94v-297h139l195 297h98v-4z" />
    <glyph glyph-name="uni04C2" unicode="&#x4c2;" horiz-adv-x="823" 
d="M412 612q-154 0 -151 151h67q0 -92 84 -92t84 92h67q1 -73 -37 -112t-114 -39zM808 547l-188 -269l195 -275v-3h-94l-166 237h-99v-237h-88v237h-100l-166 -237h-94v3l195 275l-188 269v3h98l159 -233h95v232h89v-232h95l159 233h98v-3z" />
    <glyph glyph-name="uni04F8" unicode="&#x4f8;" horiz-adv-x="906" 
d="M392 748q-17 0 -29.5 12t-12.5 30q0 17 12.5 29.5t29.5 12.5q18 0 30 -12.5t12 -29.5q0 -18 -12 -30t-30 -12zM525 748q-18 0 -30 12t-12 30q0 17 12 29.5t30 12.5q17 0 29.5 -12.5t12.5 -29.5q0 -18 -12.5 -30t-29.5 -12zM360 0h-269v700h94v-236h175q119 0 183 -61.5
t64 -170.5q0 -107 -64.5 -169.5t-182.5 -62.5zM721 0v700h94v-700h-94zM185 384v-304h164q80 0 122.5 41.5t42.5 110.5q0 72 -42.5 112t-122.5 40h-164z" />
    <glyph glyph-name="uni04F9" unicode="&#x4f9;" horiz-adv-x="778" 
d="M323 606q-17 0 -29.5 12t-12.5 30q0 17 12.5 29.5t29.5 12.5q18 0 30 -12.5t12 -29.5q0 -18 -12 -30t-30 -12zM456 606q-18 0 -30 12t-12 30q0 17 12 29.5t30 12.5q17 0 29.5 -12.5t12.5 -29.5q0 -18 -12.5 -30t-29.5 -12zM330 0h-254v550h89v-202h165q88 0 135.5 -44.5
t47.5 -129.5t-47.5 -129.5t-135.5 -44.5zM702 0h-89v550h89v-550zM165 276v-202h145q53 0 83.5 25t30.5 75t-30.5 76t-83.5 26h-145z" />
    <glyph glyph-name="uni05B0" unicode="&#x5b0;" 
d="M292 -147q-15 0 -25.5 10.5t-10.5 25.5q0 16 10.5 26.5t25.5 10.5q16 0 26.5 -10.5t10.5 -26.5q0 -15 -10.5 -25.5t-26.5 -10.5zM292 -254q-15 0 -25.5 10.5t-10.5 26.5q0 15 10.5 25.5t25.5 10.5q16 0 26.5 -10.5t10.5 -25.5q0 -16 -10.5 -26.5t-26.5 -10.5z" />
    <glyph glyph-name="uni05B1" unicode="&#x5b1;" 
d="M139 -147q-16 0 -26.5 10.5t-10.5 25.5q0 16 10.5 26.5t26.5 10.5q15 0 25.5 -10.5t10.5 -26.5q0 -15 -10.5 -25.5t-25.5 -10.5zM248 -147q-15 0 -26 10.5t-11 25.5q0 16 11 26.5t26 10.5q16 0 26.5 -10.5t10.5 -26.5q0 -15 -10.5 -25.5t-26.5 -10.5zM360 -147
q-15 0 -25.5 10.5t-10.5 25.5q0 16 10.5 26.5t25.5 10.5q16 0 26.5 -10.5t10.5 -26.5q0 -15 -10.5 -25.5t-26.5 -10.5zM193 -238q-15 0 -25.5 10.5t-10.5 25.5q0 16 10.5 26.5t25.5 10.5q16 0 26.5 -10.5t10.5 -26.5q0 -15 -10.5 -25.5t-26.5 -10.5zM360 -254
q-15 0 -25.5 10.5t-10.5 26.5q0 15 10.5 25.5t25.5 10.5q16 0 26.5 -10.5t10.5 -25.5q0 -16 -10.5 -26.5t-26.5 -10.5z" />
    <glyph glyph-name="uni05B2" unicode="&#x5b2;" 
d="M371 -147q-15 0 -25.5 10.5t-10.5 25.5q0 16 10.5 26.5t25.5 10.5q16 0 26.5 -10.5t10.5 -26.5q0 -15 -10.5 -25.5t-26.5 -10.5zM107 -134v52h184v-52h-184zM371 -254q-15 0 -25.5 10.5t-10.5 26.5q0 15 10.5 25.5t25.5 10.5q16 0 26.5 -10.5t10.5 -25.5
q0 -16 -10.5 -26.5t-26.5 -10.5z" />
    <glyph glyph-name="uni05B3" unicode="&#x5b3;" 
d="M357 -147q-16 0 -26.5 10.5t-10.5 25.5q0 16 10.5 26.5t26.5 10.5q15 0 26 -10.5t11 -26.5q0 -15 -11 -25.5t-26 -10.5zM163 -130h-70v48h186v-48h-68l2 -60v-44h-53v44zM357 -181q15 0 26 -10.5t11 -25.5q0 -16 -11 -26.5t-26 -10.5q-16 0 -26.5 10.5t-10.5 26.5
q0 15 10.5 25.5t26.5 10.5z" />
    <glyph glyph-name="uni05B4" unicode="&#x5b4;" 
d="M292 -153q-16 0 -27.5 11.5t-11.5 27.5t11.5 27.5t27.5 11.5t27.5 -11.5t11.5 -27.5t-11.5 -27.5t-27.5 -11.5z" />
    <glyph glyph-name="uni05B5" unicode="&#x5b5;" 
d="M218 -147q-15 0 -25.5 10.5t-10.5 25.5q0 16 10.5 26.5t25.5 10.5q16 0 26.5 -10.5t10.5 -26.5q0 -15 -10.5 -25.5t-26.5 -10.5zM329 -147q-16 0 -26.5 10.5t-10.5 25.5q0 16 10.5 26.5t26.5 10.5q15 0 26 -10.5t11 -26.5q0 -15 -11 -25.5t-26 -10.5z" />
    <glyph glyph-name="uni05B6" unicode="&#x5b6;" 
d="M219 -147q-16 0 -26.5 10.5t-10.5 25.5q0 16 10.5 26.5t26.5 10.5q15 0 26 -10.5t11 -26.5q0 -15 -11 -25.5t-26 -10.5zM328 -147q-15 0 -25.5 10.5t-10.5 25.5q0 16 10.5 26.5t25.5 10.5q16 0 26.5 -10.5t10.5 -26.5q0 -15 -10.5 -25.5t-26.5 -10.5zM274 -238
q-16 0 -26.5 10.5t-10.5 25.5q0 16 10.5 26.5t26.5 10.5q15 0 25.5 -10.5t10.5 -26.5q0 -15 -10.5 -25.5t-25.5 -10.5z" />
    <glyph glyph-name="uni05B7" unicode="&#x5b7;" 
d="M189 -132v53h184v-53h-184z" />
    <glyph glyph-name="uni05B8" unicode="&#x5b8;" 
d="M178 -82h186v-48h-68l2 -60v-44h-53v44l3 60h-70v48z" />
    <glyph glyph-name="uni05B9" unicode="&#x5b9;" 
d="M295 666q-17 0 -28.5 12t-11.5 28t11.5 27t28.5 11q16 0 27 -11t11 -27q0 -17 -11 -28.5t-27 -11.5z" />
    <glyph glyph-name="uni05BA" unicode="&#x5ba;" 
d="M296 666q-16 0 -27.5 11.5t-11.5 28.5q0 16 11.5 27t27.5 11t27.5 -11t11.5 -27q0 -17 -11.5 -28.5t-27.5 -11.5z" />
    <glyph glyph-name="uni05BB" unicode="&#x5bb;" 
d="M293 -144q-15 0 -25 10.5t-10 24.5t10 24.5t25 10.5q14 0 24.5 -10.5t10.5 -24.5t-10.5 -24.5t-24.5 -10.5zM368 -212q-15 0 -25 10.5t-10 24.5q0 15 10 25t25 10q14 0 24.5 -10t10.5 -25q0 -14 -10.5 -24.5t-24.5 -10.5zM443 -279q-15 0 -25 10t-10 24q0 15 10 25.5
t25 10.5q14 0 24.5 -10.5t10.5 -25.5q0 -14 -10.5 -24t-24.5 -10z" />
    <glyph glyph-name="uni05BC" unicode="&#x5bc;" 
d="M293 258q-16 0 -27 11t-11 27t11 27t27 11t27 -11t11 -27t-11 -27t-27 -11z" />
    <glyph glyph-name="uni05BE" unicode="&#x5be;" horiz-adv-x="431" 
d="M60 520v80h311v-80h-311z" />
    <glyph glyph-name="uni05BF" unicode="&#x5bf;" 
d="M188 661v46h218v-46h-218z" />
    <glyph glyph-name="uni05C1" unicode="&#x5c1;" 
d="M437 666q-16 0 -27.5 11.5t-11.5 28.5q0 16 11.5 27t27.5 11t27.5 -11t11.5 -27q0 -17 -11.5 -28.5t-27.5 -11.5z" />
    <glyph glyph-name="uni05C2" unicode="&#x5c2;" 
d="M158 666q-16 0 -28 12t-12 28t11.5 27t28.5 11q16 0 27 -11t11 -27q0 -17 -11 -28.5t-27 -11.5z" />
    <glyph glyph-name="uni05C3" unicode="&#x5c3;" horiz-adv-x="279" 
d="M140 470q-29 0 -49 20t-20 49t20 49t49 20q28 0 48.5 -20t20.5 -49t-20.5 -49t-48.5 -20zM140 -6q-29 0 -49 20t-20 49t20 49.5t49 20.5t49 -20.5t20 -49.5t-20.5 -49t-48.5 -20z" />
    <glyph glyph-name="uni05C6" unicode="&#x5c6;" horiz-adv-x="392" 
d="M339 80v-80h-263v421q0 91 37.5 135t120.5 44h83v-80h-56q-49 0 -70 -29.5t-21 -93.5v-317h169z" />
    <glyph glyph-name="uni05C7" unicode="&#x5c7;" 
d="M239 -77h146v-38h-54l2 -48v-34h-41v34l2 48h-55v38z" />
    <glyph glyph-name="uni05D0" unicode="&#x5d0;" horiz-adv-x="699" 
d="M481 201l158 -197v-4h-105l-271 338q-61 -34 -89 -112t-24 -226h-94q-4 174 34.5 265.5t122.5 133.5l-158 197v4h105l271 -337q61 34 88.5 111.5t24.5 225.5h94q4 -173 -34.5 -265t-122.5 -134z" />
    <glyph glyph-name="uni05D1" unicode="&#x5d1;" horiz-adv-x="660" 
d="M553 325v-245h89v-80h-588v80h405v239q0 99 -45.5 156t-137.5 57q-95 0 -202 -58l-31 70q117 68 247 68q263 0 263 -287z" />
    <glyph glyph-name="uni05D2" unicode="&#x5d2;" horiz-adv-x="404" 
d="M81 600h83q164 0 164 -159v-441h-72l-14 133l-3 1q-22 -63 -66.5 -98.5t-109.5 -35.5h-40v88h40q82 0 128.5 53t46.5 126v155q0 98 -91 98h-66v80z" />
    <glyph glyph-name="uni05D3" unicode="&#x5d3;" horiz-adv-x="646" 
d="M42 520v80h563v-80q-140 0 -140 -165v-355h-94v352q0 120 75 168h-404z" />
    <glyph glyph-name="uni05D4" unicode="&#x5d4;" horiz-adv-x="698" 
d="M78 520v80h258q147 0 216.5 -73t69.5 -227v-300h-94v300q0 115 -46 167.5t-146 52.5h-258zM85 0v320l94 13v-333h-94z" />
    <glyph glyph-name="uni05D5" unicode="&#x5d5;" horiz-adv-x="259" 
d="M82 600h94v-600h-94v600z" />
    <glyph glyph-name="uni05D6" unicode="&#x5d6;" horiz-adv-x="431" 
d="M398 600v-80q-99 0 -144 -48.5t-37.5 -164.5t76.5 -307h-99q-158 450 47 520h-195v80h352z" />
    <glyph glyph-name="uni05D7" unicode="&#x5d7;" horiz-adv-x="715" 
d="M82 600h275q144 0 213 -69.5t69 -216.5v-314h-94v314q0 104 -46 155t-142 51h-181v-520h-94v600z" />
    <glyph glyph-name="uni05D8" unicode="&#x5d8;" horiz-adv-x="714" 
d="M438 608q103 0 164 -74.5t61 -214.5q0 -154 -78 -241.5t-219 -87.5q-143 0 -222.5 87.5t-79.5 241.5v281h94v-281q0 -117 54 -183t154 -66q99 0 152 66t53 183q0 96 -37.5 152.5t-106.5 56.5q-57 0 -111 -27l-24 70q65 37 146 37z" />
    <glyph glyph-name="uni05D9" unicode="&#x5d9;" horiz-adv-x="244" 
d="M75 245v355h94v-339z" />
    <glyph glyph-name="uni05DA" unicode="&#x5da;" horiz-adv-x="581" 
d="M42 520v80h191q145 0 209 -69.5t64 -226.5v-478h-94v478q0 113 -44.5 164.5t-140.5 51.5h-185z" />
    <glyph glyph-name="uni05DB" unicode="&#x5db;" horiz-adv-x="600" 
d="M253 610q136 0 217.5 -84t81.5 -226t-81.5 -226t-217.5 -84q-117 0 -209 61l30 66q81 -50 168 -50q99 0 157.5 64t58.5 169t-58.5 169t-157.5 64q-88 0 -168 -51l-30 67q92 61 209 61z" />
    <glyph glyph-name="uni05DC" unicode="&#x5dc;" horiz-adv-x="581" 
d="M138 700v-100h413v-10l-230 -590h-99v4l205 516h-383v180h94z" />
    <glyph glyph-name="uni05DD" unicode="&#x5dd;" horiz-adv-x="724" 
d="M82 600h285q147 0 214 -65t67 -205v-330h-566v600zM176 520v-440h378v243q0 102 -45 149.5t-143 47.5h-190z" />
    <glyph glyph-name="uni05DE" unicode="&#x5de;" horiz-adv-x="755" 
d="M436 609q120 0 194 -85t74 -221q0 -189 -104.5 -267t-277.5 -13l21 76q131 -51 201.5 4t70.5 200q0 101 -49 162t-126 61t-124.5 -64.5t-78.5 -176.5l-77 -285h-93l77 281l-108 319h93l65 -203q32 95 93.5 153.5t148.5 58.5z" />
    <glyph glyph-name="uni05DF" unicode="&#x5df;" horiz-adv-x="259" 
d="M82 600h94v-774h-94v774z" />
    <glyph glyph-name="uni05E0" unicode="&#x5e0;" horiz-adv-x="392" 
d="M316 0h-263v80h169v317q0 63 -21 93t-70 30h-56v80h83q83 0 120.5 -44t37.5 -135v-421z" />
    <glyph glyph-name="uni05E1" unicode="&#x5e1;" horiz-adv-x="696" 
d="M64 600h291q138 0 214 -77.5t76 -217.5q0 -146 -78 -231.5t-212 -85.5q-135 0 -213 85.5t-78 231.5v295zM355 68q92 0 144 64t52 173q0 101 -51 158t-145 57h-197v-215q0 -109 52.5 -173t144.5 -64z" />
    <glyph glyph-name="uni05E2" unicode="&#x5e2;" horiz-adv-x="664" 
d="M499 404v196h94v-196q0 -107 -23.5 -182t-83 -135t-166.5 -92t-268 -39l-7 77q83 5 161 19l-141 548h97l134 -526q114 37 158.5 112.5t44.5 217.5z" />
    <glyph glyph-name="uni05E3" unicode="&#x5e3;" horiz-adv-x="649" 
d="M298 610q140 0 211 -77t71 -222v-485h-92v484q0 220 -188 220q-76 0 -123.5 -46.5t-47.5 -121.5q0 -70 43 -115t120 -53l-14 -78q-112 9 -178 77t-66 170q0 111 72.5 179t191.5 68z" />
    <glyph glyph-name="uni05E4" unicode="&#x5e4;" horiz-adv-x="656" 
d="M304 611q142 0 222.5 -84t80.5 -222q0 -145 -84.5 -230.5t-236.5 -85.5q-126 0 -219 41l23 73q88 -35 195 -35q106 0 167 64.5t61 172.5q0 101 -56 164t-153 63q-76 0 -123 -35t-47 -94q0 -56 45.5 -86.5t118.5 -25.5l-3 -73q-112 -10 -183.5 43.5t-71.5 141.5
q0 99 73.5 153.5t190.5 54.5z" />
    <glyph glyph-name="uni05E5" unicode="&#x5e5;" horiz-adv-x="623" 
d="M465 600h94q5 -152 -21 -247t-78.5 -143.5t-142.5 -75.5l124 -305v-3h-100l-314 771v3h100l160 -393q69 23 107.5 64.5t56.5 120.5t14 208z" />
    <glyph glyph-name="uni05E6" unicode="&#x5e6;" horiz-adv-x="626" 
d="M399 238l171 -229v-9h-517v80h363l-391 517v3h105l222 -298q121 59 112 298h91q9 -287 -156 -362z" />
    <glyph glyph-name="uni05E7" unicode="&#x5e7;" horiz-adv-x="708" 
d="M78 520v80h551v-347q0 -139 -55 -199.5t-156 -60.5q-66 0 -121 17l11 78q52 -15 98 -15q70 0 101 42.5t31 146.5v258h-460zM85 335l91 12v-521h-91v509z" />
    <glyph glyph-name="uni05E8" unicode="&#x5e8;" horiz-adv-x="611" 
d="M536 310v-310h-91v306q0 112 -52.5 169t-147.5 57q-87 0 -184 -51l-32 67q109 60 231 60q127 0 201.5 -74t74.5 -224z" />
    <glyph glyph-name="uni05E9" unicode="&#x5e9;" horiz-adv-x="813" 
d="M654 326v274h94v-272q0 -158 -91.5 -249t-250.5 -91t-250.5 91t-91.5 249v272h94v-274q0 -119 67 -188.5t181 -69.5t181 69.5t67 188.5zM359 600h94v-344l-94 -20v364z" />
    <glyph glyph-name="uni05EA" unicode="&#x5ea;" horiz-adv-x="756" 
d="M72 600h328q148 0 214.5 -68.5t66.5 -219.5v-312h-94v312q0 107 -45.5 157.5t-143.5 50.5h-147v-384q0 -70 -34.5 -106t-93.5 -36q-63 0 -111 17l13 74q31 -11 69 -11q34 0 49 21t15 67v358h-86v80z" />
    <glyph glyph-name="uni05EF" unicode="&#x5ef;" horiz-adv-x="732" 
d="M319 380v355h94v-339zM75 245v355h94v-339zM563 245v355h94v-339z" />
    <glyph glyph-name="uni05F0" unicode="&#x5f0;" horiz-adv-x="518" 
d="M82 600h94v-600h-94v600zM341 600h94v-600h-94v600z" />
    <glyph glyph-name="uni05F1" unicode="&#x5f1;" horiz-adv-x="507" 
d="M75 245v355h94v-339zM330 600h94v-600h-94v600z" />
    <glyph glyph-name="uni05F2" unicode="&#x5f2;" horiz-adv-x="485" 
d="M75 245v355h94v-339zM316 245v355h94v-339z" />
    <glyph glyph-name="uni05F3" unicode="&#x5f3;" horiz-adv-x="217" 
d="M43 417l57 283h94l-78 -283h-73z" />
    <glyph glyph-name="uni05F4" unicode="&#x5f4;" horiz-adv-x="376" 
d="M43 417l56 283h92l-77 -283h-71zM205 417l56 283h92l-77 -283h-71z" />
    <glyph glyph-name="uni0E3F" unicode="&#xe3f;" horiz-adv-x="649" 
d="M493 372q51 -17 80 -61t29 -105q0 -87 -55 -137.5t-150 -50.5h-57v-87h-42v87h-207v664h207v87h42v-87h49q86 0 136 -46.5t50 -125.5q0 -101 -82 -138zM298 610h-121v-207h121v207zM377 610h-37v-207h37q55 0 85 27.5t30 75.5t-30.5 76t-84.5 28zM177 336v-246h121v246
h-121zM340 90h45q62 0 97.5 33.5t35.5 90.5t-35 89.5t-98 32.5h-45v-246z" />
    <glyph glyph-name="uni1E3E" unicode="&#x1e3e;" horiz-adv-x="914" 
d="M403 750l81 116h106l-110 -116h-77zM457 301l284 399h82v-700h-91v534l-263 -364h-25l-262 364v-534h-91v700h82z" />
    <glyph glyph-name="uni1E3F" unicode="&#x1e3f;" horiz-adv-x="946" 
d="M516 716h106l-110 -116h-77zM685 559q87 0 141.5 -57.5t54.5 -154.5v-347h-89v336q0 66 -37.5 107.5t-96.5 41.5q-60 0 -97.5 -41.5t-37.5 -107.5v-336h-89v336q0 66 -37.5 107.5t-96.5 41.5q-60 0 -97.5 -41.5t-37.5 -107.5v-336h-89v550h89v-82q53 91 165 91
q63 0 107.5 -31.5t62.5 -85.5q23 55 71.5 86t113.5 31z" />
    <glyph glyph-name="Wgrave" unicode="&#x1e80;" horiz-adv-x="1026" 
d="M380 866h106l81 -116h-77zM905 700h100v-7l-239 -693h-65l-188 542l-188 -542h-65l-239 693v7h100l176 -527l178 527h76l178 -527z" />
    <glyph glyph-name="wgrave" unicode="&#x1e81;" horiz-adv-x="826" 
d="M280 716h106l81 -116h-77zM573 148l142 402h92v-4l-200 -546h-53l-141 395l-141 -395h-53l-200 546v4h92l142 -402l139 402h42z" />
    <glyph glyph-name="Wacute" unicode="&#x1e82;" horiz-adv-x="1026" 
d="M459 750l81 116h106l-110 -116h-77zM905 700h100v-7l-239 -693h-65l-188 542l-188 -542h-65l-239 693v7h100l176 -527l178 527h76l178 -527z" />
    <glyph glyph-name="wacute" unicode="&#x1e83;" horiz-adv-x="826" 
d="M359 600l81 116h106l-110 -116h-77zM573 148l142 402h92v-4l-200 -546h-53l-141 395l-141 -395h-53l-200 546v4h92l142 -402l139 402h42z" />
    <glyph glyph-name="Wdieresis" unicode="&#x1e84;" horiz-adv-x="1026" 
d="M446 753q-17 0 -29.5 12t-12.5 30q0 17 12.5 29.5t29.5 12.5q18 0 30 -12.5t12 -29.5q0 -18 -12 -30t-30 -12zM579 753q-18 0 -30 12t-12 30q0 17 12 29.5t30 12.5q17 0 29.5 -12.5t12.5 -29.5q0 -18 -12.5 -30t-29.5 -12zM905 700h100v-7l-239 -693h-65l-188 542
l-188 -542h-65l-239 693v7h100l176 -527l178 527h76l178 -527z" />
    <glyph glyph-name="wdieresis" unicode="&#x1e85;" horiz-adv-x="826" 
d="M346 603q-17 0 -29.5 12t-12.5 30q0 17 12.5 29.5t29.5 12.5q18 0 30 -12.5t12 -29.5q0 -18 -12 -30t-30 -12zM479 603q-18 0 -30 12t-12 30q0 17 12 29.5t30 12.5q17 0 29.5 -12.5t12.5 -29.5q0 -18 -12.5 -30t-29.5 -12zM573 148l142 402h92v-4l-200 -546h-53l-141 395
l-141 -395h-53l-200 546v4h92l142 -402l139 402h42z" />
    <glyph glyph-name="uni1E9E" unicode="&#x1e9e;" horiz-adv-x="678" 
d="M600 690l-186 -266q102 -6 164 -63.5t62 -150.5q0 -96 -62.5 -155.5t-163.5 -59.5q-84 0 -132 18l19 73q47 -10 95 -10q70 0 110 39t40 106q0 65 -50 102.5t-140 37.5h-37v65l142 193h-147q-62 0 -99 -36.5t-37 -109.5v-473h-94v468q0 115 58.5 173.5t169.5 58.5h288v-10
z" />
    <glyph glyph-name="uni1EBC" unicode="&#x1ebc;" horiz-adv-x="629" 
d="M258 765l-31 32q34 51 79 51q25 0 46 -24t33 -24q24 0 44 29l32 -32q-30 -50 -77 -50q-26 0 -46 24.5t-34 24.5q-25 0 -46 -31zM573 700v-80h-388v-220h342v-77h-342v-243h388v-80h-482v700h482z" />
    <glyph glyph-name="uni1EBD" unicode="&#x1ebd;" horiz-adv-x="624" 
d="M276 655q-25 0 -46 -31l-31 32q34 51 79 51q25 0 46 -24t33 -24q24 0 44 29l32 -32q-30 -50 -77 -50q-26 0 -46 24.5t-34 24.5zM314 559q133 0 207 -97t60 -223h-455q11 -76 62 -123t126 -47q97 0 152 79l68 -47q-80 -110 -220 -110q-118 0 -195.5 81.5t-77.5 202.5
q0 122 77.5 203t195.5 81zM314 480q-76 0 -128 -48.5t-61 -125.5h374q-7 73 -55.5 123.5t-129.5 50.5z" />
    <glyph glyph-name="Ygrave" unicode="&#x1ef2;" horiz-adv-x="625" 
d="M180 866h106l81 -116h-77zM311 376l197 324h104v-5l-254 -410v-285h-94v285l-252 410v5h105z" />
    <glyph glyph-name="ygrave" unicode="&#x1ef3;" horiz-adv-x="520" 
d="M243 726l81 -116h-77l-110 116h106zM266 130l146 420h92v-4l-219 -617q-41 -116 -97.5 -146.5t-153.5 -4.5l19 73q61 -13 93.5 5t55.5 85l22 65l-205 540v4h95z" />
    <glyph glyph-name="uni1EF8" unicode="&#x1ef8;" horiz-adv-x="625" 
d="M227 765l-31 32q34 51 79 51q25 0 46 -24t33 -24q24 0 44 29l32 -32q-30 -50 -77 -50q-20 0 -33.5 12.5t-24 24.5t-22.5 12q-25 0 -46 -31zM311 376l197 324h104v-5l-254 -410v-285h-94v285l-252 410v5h105z" />
    <glyph glyph-name="uni1EF9" unicode="&#x1ef9;" horiz-adv-x="520" 
d="M231 656q-25 0 -46 -31l-31 32q34 51 79 51q25 0 46 -24t33 -24q24 0 44 29l32 -32q-30 -50 -77 -50q-20 0 -33.5 12.5t-24 24.5t-22.5 12zM266 130l146 420h92v-4l-219 -617q-41 -116 -97.5 -146.5t-153.5 -4.5l19 73q61 -13 93.5 5t55.5 85l22 65l-205 540v4h95z" />
    <glyph glyph-name="uni200B" unicode="&#x200b;" 
 />
    <glyph glyph-name="endash" unicode="&#x2013;" horiz-adv-x="708" 
d="M639 261h-570v78h570v-78z" />
    <glyph glyph-name="emdash" unicode="&#x2014;" horiz-adv-x="822" 
d="M772 331v-62h-722v62h722z" />
    <glyph glyph-name="quoteleft" unicode="&#x2018;" horiz-adv-x="230" 
d="M181 706l-57 -283h-94l78 283h73z" />
    <glyph glyph-name="quoteright" unicode="&#x2019;" horiz-adv-x="217" 
d="M43 417l57 283h94l-78 -283h-73z" />
    <glyph glyph-name="quotesinglbase" unicode="&#x201a;" horiz-adv-x="224" 
d="M22 -136l57 277h93l-79 -277h-71z" />
    <glyph glyph-name="quotedblleft" unicode="&#x201c;" horiz-adv-x="388" 
d="M177 706l-55 -283h-93l78 283h70zM339 706l-55 -283h-93l77 283h71z" />
    <glyph glyph-name="quotedblright" unicode="&#x201d;" horiz-adv-x="376" 
d="M43 417l56 283h92l-77 -283h-71zM205 417l56 283h92l-77 -283h-71z" />
    <glyph glyph-name="quotedblbase" unicode="&#x201e;" horiz-adv-x="380" 
d="M22 -136l57 277h93l-79 -277h-71zM179 -136l57 277h93l-80 -277h-70z" />
    <glyph glyph-name="dagger" unicode="&#x2020;" horiz-adv-x="708" 
d="M399 750v-267h240v-78h-570v78h241v267h89zM399 -200h-89v334h89v-334z" />
    <glyph glyph-name="daggerdbl" unicode="&#x2021;" horiz-adv-x="708" 
d="M399 750v-267h240v-78h-570v78h241v267h89zM310 56h-241v78h570v-78h-240v-256h-89v256z" />
    <glyph glyph-name="bullet" unicode="&#x2022;" horiz-adv-x="521" 
d="M261 90q-89 0 -150 61t-61 149t61 148.5t150 60.5q88 0 149 -60.5t61 -148.5t-60.5 -149t-149.5 -61z" />
    <glyph glyph-name="ellipsis" unicode="&#x2026;" horiz-adv-x="673" 
d="M120 -6q-29 0 -49 20t-20 49t20 49.5t49 20.5t49 -20.5t20 -49.5t-20.5 -49t-48.5 -20zM336 -6q-28 0 -48.5 20t-20.5 49t20 49.5t49 20.5t49 -20.5t20 -49.5t-20 -49t-49 -20zM553 -6q-29 0 -49 20t-20 49t20 49.5t49 20.5t49 -20.5t20 -49.5t-20 -49t-49 -20z" />
    <glyph glyph-name="perthousand" unicode="&#x2030;" horiz-adv-x="1209" 
d="M223 292q-82 0 -130.5 56.5t-48.5 150.5t48.5 150.5t130.5 56.5q81 0 129.5 -56.5t48.5 -150.5t-48.5 -150.5t-129.5 -56.5zM464 454v7l173 239h89v-5l-182 -241h-80zM223 351q52 0 81.5 40t29.5 108q0 69 -29.5 109t-81.5 40t-82 -40t-30 -109q0 -68 30 -108t82 -40z
M605 -7q-83 0 -131.5 56.5t-48.5 150.5t48.5 151t131.5 57q81 0 129.5 -57t48.5 -151q0 -93 -48.5 -150t-129.5 -57zM992 -7q-82 0 -131 57t-49 150q0 94 49 151t131 57q81 0 129.5 -57t48.5 -151q0 -93 -48.5 -150t-129.5 -57zM605 52q51 0 81 40.5t30 107.5
q0 69 -30 109.5t-81 40.5q-52 0 -82.5 -40.5t-30.5 -109.5q0 -67 30.5 -107.5t82.5 -40.5zM992 52q51 0 81 40.5t30 107.5q0 69 -30 109.5t-81 40.5q-52 0 -82.5 -40.5t-30.5 -109.5q0 -67 30.5 -107.5t82.5 -40.5zM368 246v-7l-173 -239h-89v5l183 241h79z" />
    <glyph glyph-name="uni2031" unicode="&#x2031;" horiz-adv-x="1596" 
d="M223 292q-82 0 -130.5 56.5t-48.5 150.5t48.5 150.5t130.5 56.5q81 0 129.5 -56.5t48.5 -150.5t-48.5 -150.5t-129.5 -56.5zM464 454v7l173 239h89v-5l-182 -241h-80zM223 351q52 0 81.5 40t29.5 108q0 69 -29.5 109t-81.5 40t-82 -40t-30 -109q0 -68 30 -108t82 -40z
M605 -7q-83 0 -131.5 56.5t-48.5 150.5t48.5 151t131.5 57q81 0 129.5 -57t48.5 -151q0 -93 -48.5 -150t-129.5 -57zM992 -7q-82 0 -131 57t-49 150q0 94 49 151t131 57q81 0 129.5 -57t48.5 -151q0 -93 -48.5 -150t-129.5 -57zM1379 -7q-82 0 -130.5 56.5t-48.5 150.5
t48.5 151t130.5 57q81 0 129.5 -57t48.5 -151q0 -93 -48.5 -150t-129.5 -57zM605 52q51 0 81 40.5t30 107.5q0 69 -30 109.5t-81 40.5q-52 0 -82.5 -40.5t-30.5 -109.5q0 -67 30.5 -107.5t82.5 -40.5zM992 52q51 0 81 40.5t30 107.5q0 69 -30 109.5t-81 40.5
q-52 0 -82.5 -40.5t-30.5 -109.5q0 -67 30.5 -107.5t82.5 -40.5zM1379 52q52 0 81.5 40t29.5 108q0 69 -29.5 109.5t-81.5 40.5t-82 -40.5t-30 -109.5q0 -67 30 -107.5t82 -40.5zM368 246v-7l-173 -239h-89v5l183 241h79z" />
    <glyph glyph-name="guilsinglleft" unicode="&#x2039;" horiz-adv-x="350" 
d="M21 273v5l243 194l34 -35l-155 -162l155 -162l-34 -35z" />
    <glyph glyph-name="guilsinglright" unicode="&#x203a;" horiz-adv-x="350" 
d="M86 472l243 -194v-5l-243 -195l-34 35l154 162l-154 162z" />
    <glyph glyph-name="uni203D" unicode="&#x203d;" horiz-adv-x="577" 
d="M344 780v-72q84 -10 130.5 -55.5t46.5 -123.5q0 -43 -16 -78t-39.5 -56t-50.5 -43t-50.5 -40t-38.5 -45.5t-14 -61.5h-85q-1 44 13 78.5t36.5 54.5t49 40.5t49 37t38 43.5t15.5 60q0 54 -35.5 83t-98.5 29q-65 0 -109 -36.5t-61 -108.5l-83 20q16 86 70.5 138t138.5 64
v72h94zM270 120q26 0 44.5 -18t18.5 -44t-18.5 -44.5t-44.5 -18.5t-44.5 18.5t-18.5 44.5t18.5 44t44.5 18z" />
    <glyph glyph-name="fraction" unicode="&#x2044;" horiz-adv-x="128" 
d="M122 476v7l164 217h88v-5l-173 -219h-79zM6 224v-7l-165 -217h-87v5l173 219h79z" />
    <glyph glyph-name="uni2051" unicode="&#x2051;" horiz-adv-x="482" 
d="M166 374l-49 36l81 105l-128 38l19 58l125 -44l-3 132h61l-3 -132l125 44l19 -58l-127 -37l81 -106l-50 -36l-75 110zM269 180l125 45l19 -58l-127 -38l81 -106l-50 -36l-75 111l-76 -111l-49 36l80 106l-127 38l19 58l125 -45l-3 133h61z" />
    <glyph glyph-name="uni2055" unicode="&#x2055;" horiz-adv-x="699" 
d="M615 311q38 -21 49.5 -63t-10.5 -79q-21 -39 -63 -50.5t-79 10.5q-47 26 -52 77q-8 50 -22 58q-15 7 -35 -6q-27 -16 -27 -32q0 -17 39 -47q39 -32 39 -83q0 -44 -30 -74t-74 -30t-74.5 30.5t-30.5 73.5q0 51 40 83q39 30 39 47q0 12 -21 27q-27 18 -42 9t-21 -56
q-6 -51 -52 -77q-37 -22 -79 -10.5t-63 49.5q-23 37 -11.5 79.5t49.5 63.5q42 26 91 7q44 -20 60 -12q13 8 15 40q1 25 -15 35q-14 8 -60 -11q-48 -20 -91 6q-38 22 -49 64t11 80q21 37 63 48.5t79 -10.5q46 -26 52 -77q6 -46 21 -56q16 -9 43 9q20 13 20 27q0 17 -39 47
q-40 33 -40 84q0 43 31 73.5t74 30.5t73.5 -30.5t30.5 -73.5q0 -50 -39 -84q-39 -30 -39 -47q0 -6 4.5 -11.5t9 -9t16.5 -12.5q18 -13 32 -4q14 8 22 57q5 51 52 77q37 22 79 10.5t63 -49.5q22 -37 10.5 -79t-49.5 -64q-43 -26 -91 -6q-43 18 -60 10q-13 -9 -13 -36
q0 -29 13 -36q19 -9 60 10q49 19 91 -7z" />
    <glyph glyph-name="uni20A9" unicode="&#x20a9;" horiz-adv-x="1095" 
d="M934 404h121v-55h-140l-120 -349h-65l-121 349h-134l-121 -349h-65l-121 349h-127v55h108l-100 289v7h101l99 -296h155l100 296h76l100 -296h155l99 296h100v-7zM542 542l-48 -138h96zM267 349l59 -176l59 176h-118zM699 349l59 -176l59 176h-118z" />
    <glyph glyph-name="uni20AA" unicode="&#x20aa;" horiz-adv-x="865" 
d="M235 550h333v-374h-81v302h-216q-52 0 -70 -25t-18 -85v-368h-87v389q0 84 31.5 122.5t107.5 38.5zM630 0h-333v374h81v-302h216q51 0 69.5 25t18.5 85v368h86v-389q0 -84 -31 -122.5t-107 -38.5z" />
    <glyph glyph-name="Euro" unicode="&#x20ac;" horiz-adv-x="667" 
d="M592 112l39 -65q-81 -53 -187 -53q-123 0 -215.5 74.5t-120.5 191.5h-88l15 55h64q-2 24 -2 35q0 14 2 38h-73l15 55h67q29 117 121 190t215 73q91 0 165 -34l-33 -70q-56 24 -131 24q-86 0 -151 -50t-90 -133h298l-26 -55h-283q-2 -24 -2 -38q0 -13 2 -35h248l-25 -55
h-213q25 -84 90 -135t152 -51q81 0 147 38z" />
    <glyph glyph-name="uni20B9" unicode="&#x20b9;" horiz-adv-x="608" 
d="M556 700v-83h-167q51 -43 57 -116h110v-46h-110q-7 -91 -62.5 -137.5t-150.5 -46.5h-32l264 -266v-5h-124l-264 271v77h131q126 0 140 107h-271v46h272q-9 116 -141 116h-125v83h473z" />
    <glyph glyph-name="uni20BA" unicode="&#x20ba;" horiz-adv-x="661" 
d="M511 329h91q-6 -329 -327 -329h-113v272l-108 -40v57l108 40v74l-108 -40v57l108 40v240h94v-205l172 63v-57l-172 -63v-74l172 63v-57l-172 -63v-225h26q119 0 173 60.5t56 186.5z" />
    <glyph glyph-name="uni20BD" unicode="&#x20bd;" horiz-adv-x="680" 
d="M405 284h-159v-65h280v-72h-280v-147h-94v147h-71v72h71v65h-71v80h71v336h253q107 0 166.5 -55t59.5 -153t-59.5 -153t-166.5 -55zM396 620h-150v-256h150q68 0 104.5 33t36.5 95t-36.5 95t-104.5 33z" />
    <glyph glyph-name="uni20BF" unicode="&#x20bf;" horiz-adv-x="649" 
d="M493 372q51 -17 80 -61t29 -105q0 -87 -55 -137.5t-150 -50.5h-3v-93h-61v93h-62v-93h-59v93h-121v664h121v93h59v-93h62v93h61v-93q83 -2 132 -48t49 -124q0 -101 -82 -138zM377 610h-200v-207h200q55 0 85 27.5t30 75.5t-30.5 76t-84.5 28zM177 90h208q62 0 97.5 33.5
t35.5 90.5t-35 89.5t-98 32.5h-208v-246z" />
    <glyph glyph-name="uni2113" unicode="&#x2113;" horiz-adv-x="405" 
d="M332 58l17 -29q-59 -39 -112 -39.5t-90 37.5t-37 99v102q-27 -15 -60 -28l-13 38q38 14 73 35v286q0 148 116 148q57 0 83 -29t26 -88q0 -88 -40 -167t-107 -139v-153q0 -72 44 -92t100 19zM188 572v-238q107 104 107 243q0 82 -54 82q-53 0 -53 -87z" />
    <glyph glyph-name="uni2116" unicode="&#x2116;" horiz-adv-x="1157" 
d="M683 700v-700h-68l-432 533v-533h-92v700h68l432 -533v533h92zM923 253q-73 0 -122.5 50t-49.5 124q0 73 49.5 122t122.5 49t122.5 -49t49.5 -122q0 -74 -49.5 -124t-122.5 -50zM923 332q40 0 66.5 27t26.5 68q0 39 -27 65.5t-66 26.5t-66 -27t-27 -65q0 -40 27 -67.5
t66 -27.5zM772 130v67h304v-67h-304z" />
    <glyph glyph-name="trademark" unicode="&#x2122;" horiz-adv-x="587" 
d="M27 700h212v-57h-77v-195h-60v195h-75v57zM415 512h-20l-65 115v-179h-60v252h71l64 -105l63 105h71v-252h-60v179z" />
    <glyph glyph-name="estimated" unicode="&#x212e;" horiz-adv-x="812" 
d="M406 708q168 0 262.5 -100t94.5 -282h-589v-200q90 -98 253 -98q178 0 270 134l30 -20q-91 -153 -300 -153q-176 0 -277 97t-101 261q0 163 97.5 262t259.5 99zM406 666q-146 0 -232 -94v-202h465v202q-83 94 -233 94z" />
    <glyph glyph-name="uni2135" unicode="&#x2135;" horiz-adv-x="725" 
d="M678 489l-315 -182l-316 182l316 185zM316 380l66 -2l4 5q-13 37 -13 62q73 -1 156 36l14 -10l20 8l1 6l-43 24q-13 7 -2 24l-34 15l-28 -18l21 -19q-57 -43 -103 -43q5 47 39 127q-20 7 -41.5 6.5t-29.5 -3.5q0 -3 2.5 -25t2.5 -33q-56 19 -96 -12q-16 -12 -37 -45
l-2 -1l-17 8q-15 7 -16 7l-30 -10l14 -16q1 0 6.5 1t10.5 0t10 -4l43 -25q20 4 28 10q3 5 8.5 19.5t12.5 26.5t17 18q23 15 45 5q-2 -7 -10.5 -25.5t-16 -37t-13.5 -37t-3.5 -30.5t14.5 -12zM353 289v-362l-315 183l-1 362zM687 110l-314 -183v363l315 182zM428 50l-6 -34
l22 7q3 12 14 19l43 27q8 24 8 29q-31 41 -36 65q-6 26 18 44q31 -33 109 -99l33 56v6q-38 4 -61 20q48 81 48 152l14 8l5 20l-4 3l-42 -23q-17 -9 -23 10l-30 -22v-31l28 7q7 -71 -15 -111q-25 19 -53 52t-35 46q-17 -10 -35.5 -31t-5.5 -27q38 -18 53 -27q-38 -31 -38 -88
q0 -22 19 -53l-1 -6l-15 -9q-14 -8 -14 -10zM266 16l34 17l-1 7q-42 54 -64 92q16 7 27.5 21t16 30t6 25.5t1.5 15.5l14 -9l6 15l-4 7l-43 24q-19 11 -25 39l-29 11v-31l28 -24q4 -23 1.5 -53t-16.5 -37q-18 32 -38 74.5t-36.5 80.5t-17.5 41q-16 9 -35 -1q-9 -5 -5 -11
q37 -55 55 -85q-20 7 -32 -4t-8 -39t20 -75l-1 -3l-16 8q-13 7 -14 7l-7 -26l22 -18q0 4 4.5 5.5t11.5 -2.5l45 -27q7 16 7 21q-37 103 -37 105q-3 16 0.5 22.5t17.5 -0.5q18 -38 112 -223z" />
    <glyph glyph-name="uni2136" unicode="&#x2136;" horiz-adv-x="1000" 
d="M954 525q28 -12 23 -34q-6 -29 -36 -18q-249 87 -568 60q-4 -48 7 -76q4 -10 -3 -19t-19 -13q-23 -7 -30 21q-7 31 -7 76q-61 -87 -79 -97q-25 -14 -39 -3q-16 11 -2 36q8 14 63 68q-54 -6 -166 -23q-25 -3 -31 19q-8 28 23 33q23 3 107 21.5t118 28.5q10 17 23.5 48
t26 60.5t15.5 36.5q11 23 33 14q19 -8 15 -31q-6 -34 -41 -103q94 37 117 54q20 14 33 -6q11 -17 -6 -34q-13 -13 -116 -55q347 18 539 -64zM687 467q31 -5 52 -23.5t20 -43.5q-2 -66 -90.5 -178.5t-190.5 -201.5t-155 -112q-68 -29 -99 26q-27 47 6.5 133t103.5 160
q57 60 117.5 87t91.5 -2q13 -13 9 -34.5t-13.5 -41.5t-25.5 -41t-26.5 -33t-16.5 -17q-10 -10 -23.5 -10.5t-22.5 7.5q-23 21 5 49q45 46 62 77q-75 -27 -140 -110.5t-77 -157.5q-4 -22 4 -34.5t30 -0.5q96 51 219.5 177t161.5 215q12 23 6.5 38t-35.5 18q-83 8 -177 -32.5
t-158 -95.5q-11 -10 -25 -8.5t-21 13.5q-14 24 11 44q23 17 54 36.5t88 48.5t125 43t130 5z" />
    <glyph glyph-name="uni2137" unicode="&#x2137;" horiz-adv-x="757" 
d="M481 515q199 -111 199 -291q0 -103 -83 -182.5t-214 -79.5t-213.5 79.5t-82.5 182.5q0 181 199 291q-133 39 -193 50l19 75q131 -28 271 -82q138 54 271 82l20 -75q-64 -11 -193 -50zM383 37q94 0 157.5 56t63.5 134q0 164 -221 254q-220 -90 -220 -254q0 -78 63 -134
t157 -56zM383 305q-23 0 -40 17.5t-17 40.5q0 22 17 39t40 17t40 -17t17 -39q0 -23 -17 -40.5t-40 -17.5zM215 250l30 65q80 -40 138.5 -40t138.5 40l30 -65q-55 -28 -99 -38l57 -73l-62 -45l-65 87l-65 -87l-61 45l56 73q-42 11 -98 38z" />
    <glyph glyph-name="uni2150" unicode="&#x2150;" horiz-adv-x="760" 
d="M702 700v-5l-173 -219h-79v7l165 217h87zM217 699h44l1 -345h81v-55h-253v55h105v250l-85 -86l-39 40zM430 345v55h295v-10l-169 -390h-70l150 345h-206zM83 0v5l172 219h80v-7l-165 -217h-87z" />
    <glyph glyph-name="uni2151" unicode="&#x2151;" horiz-adv-x="781" 
d="M691 700v-5l-173 -219h-79v7l164 217h88zM226 699h45v-345h81v-55h-253v55h105v250l-85 -86l-38 40zM600 406q72 0 117.5 -39.5t45.5 -100.5q0 -62 -42 -111l-133 -155h-81v3l126 142q-25 -10 -54 -10q-60 0 -101.5 36t-41.5 95q0 61 45.5 100.5t118.5 39.5zM600 179
q43 0 70.5 24.5t27.5 62.5q0 37 -27.5 61t-70.5 24t-70.5 -24t-27.5 -61q0 -38 27.5 -62.5t70.5 -24.5zM71 0v5l173 219h79v-7l-164 -217h-88z" />
    <glyph glyph-name="uni2152" unicode="&#x2152;" horiz-adv-x="1082" 
d="M691 700v-5l-173 -219h-79v7l164 217h88zM222 699h44l1 -345h81v-55h-253v55h105v250l-85 -86l-39 40zM883 408q81 0 129.5 -57t48.5 -151q0 -93 -48.5 -150t-129.5 -57q-82 0 -130.5 56.5t-48.5 150.5t48.5 151t130.5 57zM566 400h45v-345h81v-55h-253v55h105v250
l-85 -86l-39 40zM883 52q52 0 81.5 40t29.5 108q0 69 -29.5 109.5t-81.5 40.5t-82 -40.5t-30 -109.5q0 -67 30 -107.5t82 -40.5zM71 0v5l173 219h79v-7l-164 -217h-88z" />
    <glyph glyph-name="uni2153" unicode="&#x2153;" horiz-adv-x="780" 
d="M697 700v-5l-172 -219h-80v7l165 217h87zM217 699h44l1 -345h81v-55h-253v55h105v250l-85 -86l-39 40zM659 214q37 -8 61.5 -34t24.5 -66q0 -55 -44 -87.5t-124 -32.5q-60 0 -103.5 21t-63.5 50l46 34q40 -50 125 -50q46 0 73 19.5t27 54.5q0 65 -109 65h-52v47h40
q45 0 72 15.5t27 42.5q0 58 -87 58q-74 0 -111 -51l-40 33q48 74 151 74q73 0 112.5 -29t39.5 -77q0 -61 -65 -87zM78 0v5l172 219h80v-7l-165 -217h-87z" />
    <glyph glyph-name="uni2154" unicode="&#x2154;" horiz-adv-x="846" 
d="M266 405l-64 -52h197v-55h-326v11l127 116q76 67 99.5 95.5t23.5 59.5q0 30 -23 48.5t-63 18.5q-90 0 -104 -93l-65 12q20 138 169 138q70 0 111.5 -34t41.5 -87q0 -40 -27 -80t-97 -98zM744 700v-5l-172 -219h-80v7l165 217h87zM725 214q37 -8 61.5 -34t24.5 -66
q0 -55 -43.5 -87.5t-124.5 -32.5q-60 0 -103.5 21t-63.5 50l46 34q40 -50 126 -50q46 0 72.5 19.5t26.5 54.5q0 65 -108 65h-53v47h40q45 0 72.5 15.5t27.5 42.5q0 58 -87 58q-73 0 -112 -51l-40 33q49 74 151 74q73 0 112.5 -29t39.5 -77q0 -61 -65 -87zM125 0v5l172 219
h80v-7l-165 -217h-87z" />
    <glyph glyph-name="uni2155" unicode="&#x2155;" horiz-adv-x="781" 
d="M691 700v-5l-173 -219h-79v7l164 217h88zM224 699h44l1 -345h81v-55h-253v55h105v250l-85 -86l-39 40zM524 345l-11 -87q113 14 164.5 -22t51.5 -105q0 -63 -44 -100.5t-120 -37.5q-77 0 -132 25l21 53q47 -22 101 -22q50 0 80 21.5t30 60.5q0 52 -57 73t-161 0l19 196
h243v-55h-185zM71 0v5l173 219h79v-7l-164 -217h-88z" />
    <glyph glyph-name="uni2156" unicode="&#x2156;" horiz-adv-x="832" 
d="M266 405l-64 -52h197v-55h-326v11l127 116q76 67 99.5 95.5t23.5 59.5q0 30 -23 48.5t-63 18.5q-90 0 -104 -93l-65 12q20 138 169 138q70 0 111.5 -34t41.5 -87q0 -40 -27 -80t-97 -98zM738 700v-5l-172 -219h-80v7l165 217h87zM574 345l-11 -88q113 15 164.5 -21
t51.5 -105q0 -63 -43.5 -100.5t-119.5 -37.5q-79 0 -132 25l20 53q47 -22 101 -22q51 0 81 21.5t30 60.5q0 52 -57.5 73t-161.5 0l20 196h243v-55h-186zM119 0v5l173 219h79v-7l-165 -217h-87z" />
    <glyph glyph-name="uni2157" unicode="&#x2157;" horiz-adv-x="838" 
d="M326 512q37 -8 61.5 -34t24.5 -66q0 -55 -44 -87.5t-124 -32.5q-60 0 -103.5 21t-63.5 50l46 34q40 -50 126 -50q46 0 72.5 19.5t26.5 54.5q0 65 -108 65h-53v47h40q45 0 72.5 15.5t27.5 42.5q0 58 -88 58q-73 0 -111 -51l-40 33q49 74 151 74q73 0 112.5 -29t39.5 -77
q0 -61 -65 -87zM752 700v-5l-173 -219h-79v7l164 217h88zM581 345l-11 -88q113 15 164.5 -21t51.5 -105q0 -63 -43.5 -100.5t-119.5 -37.5q-79 0 -132 25l20 53q47 -22 101 -22q50 0 80.5 21.5t30.5 60.5q0 52 -57.5 73t-161.5 0l20 196h243v-55h-186zM132 0v5l173 219h79
v-7l-165 -217h-87z" />
    <glyph glyph-name="uni2158" unicode="&#x2158;" horiz-adv-x="840" 
d="M752 700v-5l-173 -219h-79v7l164 217h88zM293 699h58v-276h51v-53h-51v-71h-64v71h-231v50zM288 616h-1l-160 -193h161v193zM583 345l-11 -87q113 14 164.5 -22t51.5 -105q0 -63 -43.5 -100.5t-119.5 -37.5q-78 0 -133 25l21 53q47 -22 101 -22q50 0 80 21.5t30 60.5
q0 52 -57 73t-161 0l20 196h243v-55h-186zM132 0v5l173 219h79v-7l-165 -217h-87z" />
    <glyph glyph-name="uni2159" unicode="&#x2159;" horiz-adv-x="767" 
d="M698 700v-5l-172 -219h-80v7l165 217h87zM223 699h44l1 -345h80v-55h-253v55h106v250l-85 -86l-39 40zM587 265q60 0 101.5 -36t41.5 -95q0 -61 -45.5 -100.5t-117.5 -39.5q-73 0 -118.5 39.5t-45.5 100.5q0 60 43 111l132 155h81v-3l-126 -143q24 11 54 11zM79 0v5
l173 219h79v-7l-165 -217h-87zM567 49q42 0 70 24t28 61q0 38 -28 62.5t-70 24.5q-43 0 -70.5 -24.5t-27.5 -62.5q0 -37 27.5 -61t70.5 -24z" />
    <glyph glyph-name="uni215A" unicode="&#x215a;" horiz-adv-x="788" 
d="M169 645l-11 -87q113 14 164.5 -22t51.5 -105q0 -63 -44 -100.5t-120 -37.5q-77 0 -132 25l21 53q47 -22 101 -22q50 0 80 21.5t30 60.5q0 52 -57 73t-161 0l19 196h243v-55h-185zM722 700v-5l-173 -219h-79v7l165 217h87zM608 265q60 0 101.5 -36t41.5 -95
q0 -61 -45.5 -100.5t-117.5 -39.5q-73 0 -118.5 39.5t-45.5 100.5q0 60 43 111l132 155h81v-3l-126 -143q24 11 54 11zM103 0v5l172 219h80v-7l-165 -217h-87zM588 49q42 0 70 24t28 61q0 38 -28 62.5t-70 24.5q-43 0 -70.5 -24.5t-27.5 -62.5q0 -37 27.5 -61t70.5 -24z" />
    <glyph glyph-name="oneeighth" unicode="&#x215b;" horiz-adv-x="782" 
d="M696 700v-5l-173 -219h-79v7l164 217h88zM217 699h44l1 -345h81v-55h-253v55h105v250l-85 -86l-39 40zM664 217q40 -14 63 -41.5t23 -63.5q0 -52 -46.5 -85.5t-119.5 -33.5q-74 0 -121 33t-47 86q0 74 87 105q-64 27 -64 86q0 46 40.5 75t104.5 29q63 0 103 -29t40 -75
q0 -59 -63 -86zM584 358q-35 0 -59 -17.5t-24 -44.5q0 -26 23.5 -42.5t59.5 -16.5t58.5 16.5t22.5 42.5q0 27 -22.5 44.5t-58.5 17.5zM76 0v5l173 219h79v-7l-164 -217h-88zM584 45q44 0 72.5 21t28.5 53t-28.5 52.5t-72.5 20.5q-45 0 -74 -20.5t-29 -52.5t29 -53t74 -21z
" />
    <glyph glyph-name="threeeighths" unicode="&#x215c;" horiz-adv-x="855" 
d="M326 512q37 -8 61.5 -34t24.5 -66q0 -55 -44 -87.5t-124 -32.5q-60 0 -103.5 21t-63.5 50l46 34q40 -50 126 -50q46 0 72.5 19.5t26.5 54.5q0 65 -108 65h-53v47h40q45 0 72.5 15.5t27.5 42.5q0 58 -88 58q-73 0 -111 -51l-40 33q49 74 151 74q73 0 112.5 -29t39.5 -77
q0 -61 -65 -87zM761 700v-5l-172 -219h-80v7l165 217h87zM737 217q40 -14 63 -41.5t23 -63.5q0 -53 -46.5 -86t-119.5 -33q-74 0 -121 33.5t-47 85.5q0 35 23.5 63t63.5 42q-64 28 -64 86q0 46 41 75t104 29t103 -29t40 -75q0 -59 -63 -86zM657 358q-35 0 -59 -17.5
t-24 -44.5q0 -26 23.5 -42.5t59.5 -16.5t58.5 16.5t22.5 42.5q0 27 -22.5 44.5t-58.5 17.5zM142 0v5l173 219h79v-7l-165 -217h-87zM657 45q44 0 72.5 21t28.5 53t-28.5 52.5t-72.5 20.5q-45 0 -74 -20.5t-29 -52.5t29 -53t74 -21z" />
    <glyph glyph-name="fiveeighths" unicode="&#x215d;" horiz-adv-x="818" 
d="M169 645l-11 -87q113 14 164.5 -22t51.5 -105q0 -63 -44 -100.5t-120 -37.5q-77 0 -132 25l21 53q47 -22 101 -22q50 0 80 21.5t30 60.5q0 52 -57 73t-161 0l19 196h243v-55h-185zM723 700v-5l-172 -219h-80v7l165 217h87zM700 217q40 -14 63 -41.5t23 -63.5
q0 -53 -46.5 -86t-119.5 -33q-74 0 -121 33.5t-47 85.5q0 36 23.5 63.5t64.5 41.5q-64 27 -64 86q0 46 40.5 75t103.5 29t103 -29t40 -75q0 -59 -63 -86zM620 358q-35 0 -59 -17.5t-24 -44.5q0 -26 23.5 -42.5t59.5 -16.5t58.5 16.5t22.5 42.5q0 27 -22.5 44.5t-58.5 17.5z
M104 0v5l173 219h79v-7l-165 -217h-87zM620 45q45 0 73 21t28 53t-28 52.5t-73 20.5t-73.5 -20.5t-28.5 -52.5t28.5 -53t73.5 -21z" />
    <glyph glyph-name="seveneighths" unicode="&#x215e;" horiz-adv-x="758" 
d="M658 700v-5l-173 -219h-79v7l164 217h88zM270 644h-205v55h295v-10l-170 -390h-70zM640 217q40 -14 63 -41.5t23 -63.5q0 -53 -46.5 -86t-119.5 -33q-74 0 -121 33.5t-47 85.5q0 35 23.5 63t63.5 42q-64 28 -64 86q0 46 41 75t104 29t103 -29t40 -75q0 -59 -63 -86z
M560 358q-35 0 -59 -17.5t-24 -44.5q0 -26 23.5 -42.5t59.5 -16.5t58.5 16.5t22.5 42.5q0 27 -22.5 44.5t-58.5 17.5zM38 0v5l173 219h79v-7l-164 -217h-88zM560 45q44 0 72.5 21t28.5 53t-28.5 52.5t-72.5 20.5q-45 0 -74 -20.5t-29 -52.5t29 -53t74 -21z" />
    <glyph glyph-name="uni215F" unicode="&#x215f;" horiz-adv-x="445" 
d="M439 488l164 217h88v-5l-173 -220h-79v8zM247 704h44l1 -346h80v-54h-253v54h106v251l-85 -87l-39 41zM71 5v5l173 219h79v-8l-164 -216h-88z" />
    <glyph glyph-name="uni2189" unicode="&#x2189;" horiz-adv-x="866" 
d="M244 708q81 0 129.5 -56.5t48.5 -150.5t-48.5 -150.5t-129.5 -56.5q-82 0 -130.5 56.5t-48.5 150.5t48.5 150.5t130.5 56.5zM771 700v-5l-172 -219h-80v7l165 217h87zM244 353q52 0 81.5 40t29.5 108q0 69 -29.5 109t-81.5 40t-82 -40t-30 -109q0 -68 30 -108t82 -40z
M745 214q37 -8 61 -34t24 -66q0 -55 -43.5 -87.5t-123.5 -32.5q-60 0 -104 21t-63 50l45 34q41 -50 126 -50q46 0 72.5 19.5t26.5 54.5q0 65 -108 65h-53v47h40q45 0 72.5 15.5t27.5 42.5q0 58 -87 58q-73 0 -112 -51l-40 33q49 74 151 74q74 0 113 -29t39 -77
q0 -61 -64 -87zM152 0v5l172 219h80v-7l-165 -217h-87z" />
    <glyph glyph-name="arrowleft" unicode="&#x2190;" horiz-adv-x="858" 
d="M220 343h569v-80h-569l143 -139l-57 -57l-237 236l237 237l56 -57z" />
    <glyph glyph-name="arrowup" unicode="&#x2191;" horiz-adv-x="556" 
d="M278 720l236 -237l-57 -57l-139 143v-569h-79v570l-141 -143l-57 56z" />
    <glyph glyph-name="arrowright" unicode="&#x2192;" horiz-adv-x="858" 
d="M495 483l57 57l237 -237l-237 -236l-57 57l142 139h-568v80h568z" />
    <glyph glyph-name="arrowdown" unicode="&#x2193;" horiz-adv-x="556" 
d="M317 131l140 142l57 -56l-237 -237l-236 237l57 57l140 -144v570h79v-569z" />
    <glyph glyph-name="arrowboth" unicode="&#x2194;" horiz-adv-x="1051" 
d="M689 483l57 57l237 -237l-238 -236l-57 57l144 140h-613l144 -140l-57 -57l-237 236l237 237l56 -57l-143 -141h613z" />
    <glyph glyph-name="arrowupdn" unicode="&#x2195;" horiz-adv-x="556" 
d="M317 569v-536l140 143l57 -56l-237 -238l-236 238l57 57l140 -145v538l-140 -144l-57 56l236 239l237 -238l-57 -57z" />
    <glyph glyph-name="uni2196" unicode="&#x2196;" horiz-adv-x="697" 
d="M226 622l403 -403l-57 -56l-402 402l3 -200h-81l-1 335h335v-80z" />
    <glyph glyph-name="uni2197" unicode="&#x2197;" horiz-adv-x="697" 
d="M270 620v80h335l-1 -334h-80l2 199l-402 -402l-56 56l402 403z" />
    <glyph glyph-name="uni2198" unicode="&#x2198;" horiz-adv-x="697" 
d="M605 0h-335v80l200 -2l-402 403l56 56l402 -402l-2 199h80z" />
    <glyph glyph-name="uni2199" unicode="&#x2199;" horiz-adv-x="697" 
d="M572 537l57 -56l-403 -403l200 2v-80h-335l1 335h81l-3 -200z" />
    <glyph glyph-name="uni21AF" unicode="&#x21af;" horiz-adv-x="451" 
d="M265 58l121 87l36 -53l-224 -156l-145 210l54 38l87 -125l76 301l-193 -37l91 382h75l-76 -302l191 33z" />
    <glyph glyph-name="arrowdbldown" unicode="&#x21d3;" horiz-adv-x="715" 
d="M258 750h65v-623h-39l-192 256l55 37l111 -163v493zM392 127v623h65v-493l111 163l55 -37l-192 -256h-39zM13 0v67h689v-67h-689z" />
    <glyph glyph-name="uni21DE" unicode="&#x21de;" horiz-adv-x="556" 
d="M514 483l-57 -57l-139 143v-244h121v-57h-121v-69h121v-57h-121v-142h-79v142h-122v57h122v69h-122v57h122v245l-141 -143l-57 56l237 237z" />
    <glyph glyph-name="uni21DF" unicode="&#x21df;" horiz-adv-x="556" 
d="M318 131l139 143l57 -57l-236 -237l-237 237l57 56l141 -143v245h-122v57h122v69h-122v57h122v142h79v-142h121v-57h-121v-69h121v-57h-121v-244z" />
    <glyph glyph-name="uni21E7" unicode="&#x21e7;" horiz-adv-x="821" 
d="M411 715l371 -391v-3h-187v-321h-368v321h-188v2zM530 59v314h121l-240 242l-240 -242h121v-314h238z" />
    <glyph glyph-name="uni21E9" unicode="&#x21e9;" horiz-adv-x="821" 
d="M782 379v-3l-371 -391l-372 392v2h188v321h368v-321h187zM651 327h-121v314h-238v-314h-121l240 -242z" />
    <glyph glyph-name="uni21EA" unicode="&#x21ea;" horiz-adv-x="821" 
d="M411 715l371 -391v-3h-187v-131h-368v131h-188v2zM531 248v125h121l-241 243l-241 -243h121v-125h240zM227 148h368v-148h-368v148zM531 50v48h-240v-48h240z" />
    <glyph glyph-name="uni21F1" unicode="&#x21f1;" horiz-adv-x="771" 
d="M79 750h531v-36h-494v-516h-37v552zM338 538l357 -357l-48 -48l-357 356v-161h-63v272h262v-62h-151z" />
    <glyph glyph-name="partialdiff" unicode="&#x2202;" horiz-adv-x="592" 
d="M99 674l16 82q202 -28 320.5 -159.5t118.5 -336.5q0 -120 -72.5 -195t-186.5 -75q-112 0 -186.5 70.5t-74.5 176.5q0 105 68 173t180 68q94 0 154 -62q-34 109 -124 174t-213 84zM294 72q73 0 120.5 47.5t47.5 119.5t-47.5 120t-120.5 48t-120.5 -48t-47.5 -120
t48 -119.5t120 -47.5z" />
    <glyph glyph-name="emptyset" unicode="&#x2205;" horiz-adv-x="812" 
d="M755 700l-86 -100q94 -100 94 -250q0 -156 -101.5 -258.5t-255.5 -102.5q-118 0 -209 63l-45 -52h-95l86 100q-94 100 -94 250q0 156 101.5 258.5t255.5 102.5q120 0 209 -64l46 53h94zM143 350q0 -106 61 -180l352 408q-65 45 -150 45q-114 0 -188.5 -77.5t-74.5 -195.5
zM406 77q114 0 188.5 77.5t74.5 195.5q0 106 -60 180l-352 -409q64 -44 149 -44z" />
    <glyph glyph-name="uni2206" unicode="&#x2206;" horiz-adv-x="633" 
d="M271 700h91l272 -700h-635zM316 590l-194 -514h389z" />
    <glyph glyph-name="product" unicode="&#x220f;" horiz-adv-x="759" 
d="M91 -200v950h578v-950h-94v870h-390v-870h-94z" />
    <glyph glyph-name="summation" unicode="&#x2211;" horiz-adv-x="612" 
d="M32 750h530v-80h-372l276 -395l-276 -395h372v-80h-530v7l323 468l-323 468v7z" />
    <glyph glyph-name="minus" unicode="&#x2212;" horiz-adv-x="527" 
d="M459 261h-390v78h390v-78z" />
    <glyph glyph-name="radical" unicode="&#x221a;" horiz-adv-x="629" 
d="M326 -200h-110l-185 478l89 32l146 -383l240 823h98z" />
    <glyph glyph-name="infinity" unicode="&#x221e;" horiz-adv-x="872" 
d="M637 503q86 0 141 -57t55 -146t-55 -146t-141 -57q-111 0 -200 136q-91 -136 -201 -136q-87 0 -142 57t-55 146t55 146t142 57q110 0 201 -136q89 136 200 136zM241 176q82 0 158 124q-76 124 -158 124q-53 0 -86 -34.5t-33 -89.5t33 -89.5t86 -34.5zM631 176
q53 0 86.5 34.5t33.5 89.5t-33.5 89.5t-86.5 34.5q-82 0 -155 -124q73 -124 155 -124z" />
    <glyph glyph-name="integral" unicode="&#x222b;" horiz-adv-x="404" 
d="M422 743l-19 -71q-71 18 -102 -1t-35 -91l-40 -614q-8 -121 -64.5 -159.5t-180.5 2.5l19 71q72 -18 103 1t35 91l39 614q8 122 63 159t182 -2z" />
    <glyph glyph-name="approxequal" unicode="&#x2248;" horiz-adv-x="535" 
d="M441 436v-75q-40 -36 -95 -36q-39 0 -82 29.5t-75 29.5q-49 0 -95 -39v73q42 38 95 38q39 0 82 -30t75 -30q52 0 95 40zM441 263v-75q-40 -36 -95 -36q-39 0 -82 29.5t-75 29.5q-51 0 -95 -39v73q42 38 95 38q39 0 82 -30t75 -30q52 0 95 40z" />
    <glyph glyph-name="notequal" unicode="&#x2260;" horiz-adv-x="585" 
d="M510 451v-75h-137l-77 -152h214v-74h-252l-70 -136h-85l70 136h-98v74h136l78 152h-214v75h253l69 135h84l-69 -135h98z" />
    <glyph glyph-name="lessequal" unicode="&#x2264;" horiz-adv-x="499" 
d="M429 227l-369 170v73l369 170v-79l-284 -128l284 -127v-79zM427 145v-76h-372v76h372z" />
    <glyph glyph-name="greaterequal" unicode="&#x2265;" horiz-adv-x="499" 
d="M439 470v-73l-368 -170v79l284 127l-284 128v79zM444 69h-372v76h372v-76z" />
    <glyph glyph-name="uni2318" unicode="&#x2318;" horiz-adv-x="824" 
d="M546 271h85q60 0 101.5 -41t41.5 -100t-41.5 -99.5t-101.5 -40.5t-101 40.5t-41 99.5v87h-153v-87q0 -59 -41.5 -99.5t-101.5 -40.5t-101.5 40.5t-41.5 99.5t41.5 100t101.5 41h85v158h-85q-60 0 -101.5 40.5t-41.5 99.5t41.5 100t101.5 41t101.5 -41t41.5 -100v-86h153
v86q0 59 41 100t101 41t101.5 -41t41.5 -100t-41.5 -99.5t-101.5 -40.5h-85v-158zM193 483h85v86q0 36 -24.5 61.5t-60.5 25.5t-60.5 -25.5t-24.5 -61.5t24.5 -61t60.5 -25zM546 569v-86h85q36 0 61 25t25 61t-25 61.5t-61 25.5q-35 0 -60 -25.5t-25 -61.5zM489 429h-153
v-158h153v158zM278 130v87h-85q-36 0 -60.5 -25t-24.5 -62q0 -36 24.5 -61t60.5 -25t60.5 25t24.5 61zM631 217h-85v-87q0 -36 25 -61t60 -25q36 0 61 25t25 61q0 37 -25 62t-61 25z" />
    <glyph glyph-name="uni2325" unicode="&#x2325;" horiz-adv-x="810" 
d="M569 77h167v-77h-211l-297 623h-166v77h211zM736 623h-262v77h262v-77z" />
    <glyph glyph-name="uni2326" unicode="&#x2326;" horiz-adv-x="1049" 
d="M90 700h653l281 -350l-281 -350h-653v700zM154 58h554l234 292l-234 292h-554v-584zM626 544l48 -48l-145 -145l146 -147l-48 -48l-146 147l-147 -147l-48 48l147 147l-146 145l48 48l146 -145z" />
    <glyph glyph-name="uni232B" unicode="&#x232b;" horiz-adv-x="1049" 
d="M25 350l281 350h653v-700h-653zM341 58h554v584h-554l-234 -292zM569 303l-147 -147l-48 48l147 147l-146 145l48 48l146 -145l145 145l48 -48l-145 -145l146 -147l-48 -48z" />
    <glyph glyph-name="uni2380" unicode="&#x2380;" horiz-adv-x="626" 
d="M280 586q77 0 122 -47v7q0 123 -119 123q-71 0 -128 -40l-21 43q67 48 160 48q82 0 127 -43t45 -131v-224h-64v40q-45 -47 -122 -47q-71 0 -116.5 38t-45.5 97q0 60 45.5 98t116.5 38zM293 360q49 0 80 25.5t31 65.5q0 41 -31 66t-80 25q-50 0 -81 -25.5t-31 -65.5
t31.5 -65.5t80.5 -25.5zM313 88l169 203l53 -49l-220 -248h-3l-219 249l53 48z" />
    <glyph glyph-name="uni2387" unicode="&#x2387;" horiz-adv-x="810" 
d="M736 700v-77h-167l-296 -623h-211v77h166l297 623h211zM474 0v77h262v-77h-262z" />
    <glyph glyph-name="uni23CE" unicode="&#x23ce;" horiz-adv-x="831" 
d="M660 342v258h68v-272q0 -71 -29.5 -99.5t-101.5 -28.5h-434l161 -155l-48 -48l-241 238l241 240l48 -49l-163 -158h422q41 0 59 17t18 57z" />
    <glyph glyph-name="uni2400" unicode="&#x2400;" horiz-adv-x="778" 
d="M690 633l32 -32l-127 -127q64 -75 64 -174q0 -112 -79 -191t-191 -79q-99 0 -174 64l-127 -127l-32 32l127 127q-64 75 -64 174q0 112 79 191t191 79q99 0 174 -64zM171 300q0 -77 48 -138l308 308q-62 49 -138 49q-90 0 -154.5 -64.5t-63.5 -154.5zM607 300
q0 77 -48 138l-308 -308q62 -49 138 -49q90 0 154.5 64.5t63.5 154.5z" />
    <glyph glyph-name="uni24D8" unicode="&#x24d8;" horiz-adv-x="805" 
d="M402 -5q-149 0 -251.5 102t-102.5 252t102.5 252t251.5 102q150 0 252.5 -102t102.5 -252t-102.5 -252t-252.5 -102zM402 58q122 0 206 84.5t84 206.5t-84 206.5t-206 84.5q-121 0 -205 -84.5t-84 -206.5t84 -206.5t205 -84.5zM402 465q-22 0 -36.5 13t-14.5 33t14.5 33
t36.5 13q23 0 38 -13t15 -33t-15 -33t-38 -13zM442 151h-79v263h79v-263z" />
    <glyph glyph-name="uni24FF" unicode="&#x24ff;" horiz-adv-x="805" 
d="M402 -5q150 0 252.5 102t102.5 252t-102.5 252t-252.5 102q-149 0 -251.5 -102t-102.5 -252t102.5 -252t251.5 -102zM404 125q-87 0 -138 62t-51 163t51 162.5t138 61.5q85 0 135.5 -61.5t50.5 -162.5t-50.5 -163t-135.5 -62zM404 187q55 0 86.5 44.5t31.5 118.5
q0 73 -31.5 117.5t-86.5 44.5q-56 0 -88 -44.5t-32 -117.5q0 -74 32 -118.5t88 -44.5z" />
    <glyph glyph-name="filledbox" unicode="&#x25a0;" horiz-adv-x="720" 
d="M60 0v600h600v-600h-600z" />
    <glyph glyph-name="uni25A1" unicode="&#x25a1;" horiz-adv-x="724" 
d="M60 0v604h604v-604h-604zM601 543h-478v-482h478v482z" />
    <glyph glyph-name="uni25A4" unicode="&#x25a4;" horiz-adv-x="872" 
d="M86 0v700h700v-700h-700zM118 669v-65h636v65h-636zM118 509h636v65h-636v-65zM118 413h636v66h-636v-66zM118 317h636v67h-636v-67zM118 221h636v67h-636v-67zM118 125h636v67h-636v-67zM118 31h636v65h-636v-65z" />
    <glyph glyph-name="triagup" unicode="&#x25b2;" horiz-adv-x="768" 
d="M758 0h-748l374 663z" />
    <glyph glyph-name="uni25B3" unicode="&#x25b3;" horiz-adv-x="768" 
d="M758 0h-748l374 663zM384 532l-264 -469h529z" />
    <glyph glyph-name="triagdn" unicode="&#x25bc;" horiz-adv-x="768" 
d="M384 -63l-374 663h748z" />
    <glyph glyph-name="uni25BD" unicode="&#x25bd;" horiz-adv-x="768" 
d="M384 -63l-374 663h748zM649 537h-529l264 -469z" />
    <glyph glyph-name="uni25C6" unicode="&#x25c6;" horiz-adv-x="600" 
d="M561 350l-261 -261l-261 261l261 261z" />
    <glyph glyph-name="uni25C7" unicode="&#x25c7;" horiz-adv-x="600" 
d="M561 350l-261 -261l-261 261l261 261zM122 350l178 -178l178 178l-178 178z" />
    <glyph glyph-name="lozenge" unicode="&#x25ca;" horiz-adv-x="551" 
d="M19 350l256 386l257 -386l-257 -386zM95 350l180 -275l180 275l-180 275z" />
    <glyph glyph-name="circle" unicode="&#x25cb;" horiz-adv-x="805" 
d="M402 -5q-149 0 -251.5 102t-102.5 252t102.5 252t251.5 102q150 0 252.5 -102t102.5 -252t-102.5 -252t-252.5 -102zM402 58q122 0 206 84.5t84 206.5t-84 206.5t-206 84.5q-121 0 -205 -84.5t-84 -206.5t84 -206.5t205 -84.5z" />
    <glyph glyph-name="uni25CC" unicode="&#x25cc;" horiz-adv-x="805" 
d="M402 615q-18 0 -30.5 12.5t-12.5 31.5t12.5 31.5t30.5 12.5q19 0 31.5 -12.5t12.5 -31.5t-12.5 -31.5t-31.5 -12.5zM138 569q0 18 13 31t32 13q18 0 30.5 -13t12.5 -31q0 -19 -12.5 -31.5t-30.5 -12.5q-19 0 -32 12.5t-13 31.5zM578 569q0 18 12.5 31t31.5 13t31.5 -13
t12.5 -31q0 -19 -12.5 -31.5t-31.5 -12.5t-31.5 12.5t-12.5 31.5zM92 304q-19 0 -31.5 13t-12.5 32q0 18 12.5 30.5t31.5 12.5t31.5 -12.5t12.5 -30.5q0 -19 -12.5 -32t-31.5 -13zM713 304q-19 0 -31.5 13t-12.5 32q0 18 12.5 30.5t31.5 12.5t31.5 -12.5t12.5 -30.5
q0 -19 -12.5 -32t-31.5 -13zM138 129q0 19 12.5 31.5t31.5 12.5t31.5 -12.5t12.5 -31.5q0 -18 -12.5 -31t-31.5 -13t-31.5 13t-12.5 31zM578 128q0 19 13 31.5t32 12.5q18 0 31 -12.5t13 -31.5q0 -18 -13 -31t-31 -13q-19 0 -32 13t-13 31zM402 -6q-18 0 -30.5 12.5
t-12.5 31.5t12.5 31.5t30.5 12.5q19 0 31.5 -12.5t12.5 -31.5t-12.5 -31.5t-31.5 -12.5z" />
    <glyph glyph-name="uni25CF" unicode="&#x25cf;" horiz-adv-x="805" 
d="M402 -5q150 0 252.5 102t102.5 252t-102.5 252t-252.5 102q-149 0 -251.5 -102t-102.5 -252t102.5 -252t251.5 -102z" />
    <glyph glyph-name="uni2605" unicode="&#x2605;" horiz-adv-x="824" 
d="M411 108l-260 -161l71 298l-232 198l304 23l118 284l117 -284l305 -23l-234 -198l74 -298z" />
    <glyph glyph-name="uni2606" unicode="&#x2606;" horiz-adv-x="824" 
d="M411 122l-260 -175l84 302l-245 194l313 12l109 295l109 -295l313 -12l-247 -194l87 -302zM302 271l-60 -198l171 118l170 -118l-59 198l164 125l-207 5l-68 195l-68 -195l-207 -5z" />
    <glyph glyph-name="uni2610" unicode="&#x2610;" horiz-adv-x="724" 
d="M60 0v604h604v-604h-604zM601 543h-478v-482h478v482z" />
    <glyph glyph-name="uni2611" unicode="&#x2611;" horiz-adv-x="724" 
d="M60 0v604h604v-604h-604zM601 543h-478v-482h478v482zM370 127h-67l-124 195l53 34l100 -158l132 279h64z" />
    <glyph glyph-name="uni2612" unicode="&#x2612;" horiz-adv-x="724" 
d="M60 0v604h604v-604h-604zM123 61h478v482h-478v-482zM362 258l-121 -121l-41 42l120 120l-120 121l41 41l121 -120l120 120l42 -41l-121 -121l121 -120l-42 -42z" />
    <glyph glyph-name="uni262E" unicode="&#x262e;" horiz-adv-x="805" 
d="M402 703q150 0 252.5 -102t102.5 -252t-102.5 -252t-252.5 -102q-149 0 -251.5 102t-102.5 252t102.5 252t251.5 102zM372 374v264q-111 -11 -185 -93t-74 -196q0 -78 38 -146zM692 349q0 112 -72.5 193.5t-181.5 95.5v-264l217 -168q37 65 37 143zM372 297l-185 -143
q74 -83 185 -94v237zM438 297v-237q111 14 182 96z" />
    <glyph glyph-name="uni262F" unicode="&#x262f;" horiz-adv-x="805" 
d="M402 703q150 0 252.5 -102t102.5 -252t-102.5 -252t-252.5 -102q-149 0 -251.5 102t-102.5 252t102.5 252t251.5 102zM402 640q-119 0 -202.5 -82.5t-86.5 -201.5q4 -64 44.5 -90.5t88.5 -26.5q35 0 60.5 10t43 32t26.5 39t22 48q45 109 146 108q61 0 100.5 -35.5
t47.5 -94.5v3q0 122 -84 206.5t-206 84.5z" />
    <glyph glyph-name="smileface" unicode="&#x263a;" horiz-adv-x="805" 
d="M402 -5q-149 0 -251.5 102t-102.5 252t102.5 252t251.5 102q150 0 252.5 -102t102.5 -252t-102.5 -252t-252.5 -102zM402 58q122 0 206 84.5t84 206.5t-84 206.5t-206 84.5q-121 0 -205 -84.5t-84 -206.5t84 -206.5t205 -84.5zM322 402q-21 0 -34.5 13.5t-13.5 34.5
t13.5 35t34.5 14q20 0 34 -14t14 -35t-14 -34.5t-34 -13.5zM489 402q-20 0 -34 13.5t-14 34.5q0 19 14.5 34t33.5 15q21 0 35 -14.5t14 -34.5q0 -21 -14 -34.5t-35 -13.5zM549 327h59q0 -80 -59 -135.5t-144 -55.5t-143 55.5t-58 135.5h58q0 -57 41.5 -96.5t101.5 -39.5
q61 0 102.5 39.5t41.5 96.5z" />
    <glyph glyph-name="uni263F" unicode="&#x263f;" horiz-adv-x="800" 
d="M433 486l4 -141q84 -13 138.5 -75.5t54.5 -147.5q0 -95 -66.5 -161t-163.5 -66q-96 0 -162.5 66t-66.5 161q0 85 54.5 147.5t137.5 75.5l4 141l-152 -53l-23 70l154 46l-98 127l60 43l92 -132l91 132l60 -43l-98 -127l154 -46l-23 -70zM400 -31q64 0 108 44.5t44 108.5
t-44 108t-108 44q-65 0 -108.5 -44t-42.5 -108q0 -65 43.5 -109t107.5 -44z" />
    <glyph glyph-name="female" unicode="&#x2640;" horiz-adv-x="1000" 
d="M999 38q9 -6 11 -16t-7 -16q-40 -31 -127.5 -37.5t-159.5 13.5q-98 -65 -216 -65t-216 65q-72 -20 -159.5 -13.5t-127.5 37.5q-9 6 -7 16t11 16q57 37 81.5 113t24.5 159q0 162 115.5 277.5t277.5 115.5t277.5 -115.5t115.5 -277.5q0 -83 24.5 -159t81.5 -113zM500 663
q-126 0 -224 -82.5t-122 -205.5q89 4 204.5 41t198.5 110q23 19 41 -1q57 -70 126.5 -109t121.5 -44q-23 123 -121.5 207t-224.5 84zM148 310q0 -143 104.5 -248t247.5 -105t247.5 105t104.5 248q0 16 -1 23q-57 3 -132.5 40t-142.5 115q-66 -55 -154 -91t-152 -47.5
t-121 -12.5q-1 -9 -1 -27zM324 297q13 0 20.5 -12.5t7.5 -31.5q0 -20 -7.5 -32.5t-20.5 -12.5t-20.5 12.5t-7.5 32.5q0 19 7.5 31.5t20.5 12.5zM677 297q12 0 19.5 -12.5t7.5 -31.5q0 -20 -7.5 -32.5t-19.5 -12.5q-13 0 -21 12.5t-8 32.5q0 19 8 31.5t21 12.5zM46 30
q68 -40 195 -15q-78 69 -113 167q-21 -112 -82 -152zM759 15q127 -25 195 15q-61 40 -82 152q-35 -98 -113 -167zM602 127q16 13 29 1q13 -15 -5 -30q-52 -47 -126 -47t-126 47q-18 15 -5 30q13 12 29 -1q42 -38 102 -38t102 38z" />
    <glyph glyph-name="male" unicode="&#x2642;" horiz-adv-x="1000" 
d="M500 703q162 0 277.5 -115.5t115.5 -277.5t-115.5 -277.5t-277.5 -115.5t-277.5 115.5t-115.5 277.5t115.5 277.5t277.5 115.5zM500 663q-126 0 -224 -82.5t-122 -205.5q89 4 204.5 41t198.5 110q23 19 41 -1q57 -70 126.5 -109t121.5 -44q-22 123 -120.5 207t-225.5 84z
M500 -43q144 0 248 104.5t104 248.5q0 16 -1 23q-57 3 -132.5 40t-142.5 115q-66 -55 -154 -91t-152 -47.5t-121 -12.5q-1 -9 -1 -27q0 -144 104 -248.5t248 -104.5zM324 297q13 0 20.5 -12.5t7.5 -31.5q0 -20 -7.5 -32.5t-20.5 -12.5t-20.5 12.5t-7.5 32.5q0 19 7.5 31.5
t20.5 12.5zM677 297q12 0 19.5 -12.5t7.5 -31.5q0 -20 -7.5 -32.5t-19.5 -12.5q-13 0 -21 12.5t-8 32.5q0 19 8 31.5t21 12.5zM602 127q16 13 29 1q13 -15 -5 -30q-52 -47 -126 -47t-126 47q-18 15 -5 30q13 12 29 -1q42 -38 102 -38t102 38z" />
    <glyph glyph-name="uni2661" unicode="&#x2661;" horiz-adv-x="790" 
d="M562 645q81 0 135 -53.5t54 -132.5q0 -88 -83 -178l-273 -296l-274 296q-83 90 -83 178q0 80 53 133t134 53q54 0 90.5 -21t79.5 -67q44 46 79 67t88 21zM561 583q-26 0 -48.5 -10t-36 -21.5t-38.5 -36.5l-43 -45l-43 45q-37 37 -62.5 52.5t-62.5 15.5q-54 0 -88.5 -36
t-34.5 -90q0 -65 58 -127l233 -251l232 251q59 63 59 127q0 54 -35 90t-90 36z" />
    <glyph glyph-name="heart" unicode="&#x2665;" horiz-adv-x="786" 
d="M559 648q80 0 133.5 -54t53.5 -133q0 -84 -84 -177l-269 -295l-270 295q-83 90 -83 177q0 79 52 133t131 54q54 0 89 -20.5t81 -65.5q30 30 49 45.5t50 28t67 12.5z" />
    <glyph glyph-name="diamond" unicode="&#x2666;" horiz-adv-x="663" 
d="M323 781h16l299 -431l-299 -431h-16l-298 431zM119 404l192 62v214zM352 679v-213l191 -62zM311 239v185l-229 -74zM581 350l-229 74v-185zM128 283l203 -292l203 292l-203 -100z" />
    <glyph glyph-name="uni2667" unicode="&#x2667;" horiz-adv-x="1373" 
d="M916 -50h-458q-25 0 -43.5 19t-18.5 45v672q0 26 18.5 45t43.5 19h458q25 0 43.5 -19t18.5 -45v-672q0 -26 -18.5 -45t-43.5 -19zM347 21l-127 -24q-19 -4 -33.5 7t-14.5 29v629q0 18 15.5 26.5t32.5 -2.5l127 -88v-577zM1153 -3l-125 24v577l125 87q17 11 32.5 3
t15.5 -26v-629q0 -18 -14.5 -29t-33.5 -7zM127 73h-60q-13 0 -23.5 10.5t-10.5 23.5v391q0 13 10.5 23.5t23.5 10.5h60v-459zM1306 73h-60v459h60q13 0 23.5 -10.5t10.5 -23.5v-391q0 -13 -10.5 -23.5t-23.5 -10.5z" />
    <glyph glyph-name="uni267F" unicode="&#x267f;" horiz-adv-x="871" 
d="M436 593q-47 0 -80 33.5t-33 81.5q0 47 33 80t80 33t80 -33t33 -80q0 -48 -33 -81.5t-80 -33.5zM117 540h637q31 0 52 -20t21 -51t-21 -52t-52 -21h-179v-171l77 -280q8 -32 -6.5 -57t-45.5 -32q-30 -7 -54.5 7.5t-32.5 45.5l-77 286l-77 -286q-8 -31 -32 -45.5t-55 -7.5
q-32 7 -47.5 32t-6.5 57l78 277v174h-179q-32 0 -52.5 20.5t-20.5 52.5q0 31 20.5 51t52.5 20z" />
    <glyph glyph-name="uni26A5" unicode="&#x26a5;" horiz-adv-x="1000" 
d="M970 388q11 -7 12.5 -17.5t-8.5 -15.5q-20 -11 -59 -11t-75 10q-52 -36 -117 -36q-67 0 -117 36q-37 -10 -76 -10t-58 11q-10 5 -9.5 15t10.5 16q22 12 33.5 54.5t11.5 84.5q0 87 59 147t146 60t146 -60t59 -147q0 -41 11.5 -83.5t30.5 -53.5zM405 564h-331q-15 0 -15 16
v111q0 16 15 16h331q16 0 16 -16v-111q0 -16 -16 -16zM723 700q-61 0 -107.5 -37.5t-60.5 -96.5q117 8 186 73q16 16 28 -5q24 -32 59 -52t65 -25q-11 62 -58 102.5t-112 40.5zM389 676h-298v-81h298v81zM551 525q0 -74 49.5 -124.5t122.5 -50.5t122.5 49.5t50.5 123.5
q-32 3 -72 22.5t-72 57.5q-76 -66 -201 -72v-6zM633 522q15 0 15 -28t-15 -28q-18 0 -18 28t18 28zM815 522q16 0 16 -28t-16 -28q-17 0 -17 28t17 28zM405 373h-331q-15 0 -15 16v110q0 16 15 16h331q16 0 16 -16v-110q0 -16 -16 -16zM389 485h-298v-82h298v82zM506 377
q32 -7 72 2q-27 29 -40 64q-11 -48 -32 -66zM868 379q39 -11 71 -2q-21 16 -31 65q-14 -37 -40 -63zM771 428q7 11 20 -2q8 -10 -3 -23q-27 -22 -65 -22q-40 0 -64 22q-13 13 -1 25q9 11 19 -1q18 -16 47 -16q27 0 47 17zM248 316q86 0 147 -61.5t61 -148.5q0 -84 -61 -144
t-147 -60q-84 0 -143.5 60.5t-59.5 146.5t59.5 146.5t143.5 60.5zM251 284q-61 0 -108.5 -38t-61.5 -96q120 11 184 73q16 14 29 -5q25 -32 61 -52.5t66 -24.5q-11 62 -59 102.5t-111 40.5zM887 217l43 -126q3 -13 -9 -16l-78 -19l53 -57q9 -11 -2 -20l-113 -76
q-11 -8 -16 3l-43 67l-41 -67q-7 -12 -17 -3l-113 76q-13 9 -2 20l53 57l-79 19q-12 3 -8 16l43 125q3 12 15 7l75 -31l-6 77q-2 12 12 12h138q12 0 11 -12l-6 -77l74 32q13 5 16 -7zM860 -8l-71 81l107 27l-31 87l-100 -38l5 104h-95l6 -104l-101 37l-30 -86l104 -27
l-68 -81l78 -54l58 89l60 -89zM251 -67q70 0 121 51.5t52 122.5q-32 3 -73.5 22.5t-74.5 57.5q-77 -66 -200 -72v-6q0 -72 51.5 -124t123.5 -52zM156 106q16 0 16 -28t-16 -28q-17 0 -17 28t17 28zM340 106q17 0 17 -28t-17 -28q-16 0 -16 28t16 28zM293 15q12 11 22 1
q11 -13 -3 -25q-22 -22 -64 -22q-41 0 -65 22q-13 13 -2 25q9 11 21 -1q16 -16 46 -16q29 0 45 16z" />
    <glyph glyph-name="uni272A" unicode="&#x272a;" horiz-adv-x="805" 
d="M402 -5q150 0 252.5 102t102.5 252t-102.5 252t-252.5 102q-149 0 -251.5 -102t-102.5 -252t102.5 -252t251.5 -102zM404 208l-185 -115l50 212l-165 141l216 16l84 202l83 -202l217 -16l-166 -141l53 -212z" />
    <glyph glyph-name="uni2731" unicode="&#x2731;" horiz-adv-x="731" 
d="M645 566l47 -82l-232 -134l232 -134l-47 -82l-232 134v-268h-95v268l-232 -134l-47 82l232 134l-232 134l47 82l232 -134v268h95v-268z" />
    <glyph glyph-name="uni2732" unicode="&#x2732;" horiz-adv-x="730" 
d="M397 435h-62v265h62v-265zM455 365l-31 54l230 134l31 -54zM307 419l-31 -55l-231 134l32 54zM77 147l-31 54l230 132l31 -54zM685 201l-31 -54l-230 132l31 54zM397 -1h-62v264h62v-264z" />
    <glyph glyph-name="uni275B" unicode="&#x275b;" horiz-adv-x="476" 
d="M204 520l7 -2q36 21 75.5 21.5t70.5 -16t51 -52t20 -82.5q0 -77 -53.5 -127.5t-135.5 -50.5q-84 0 -138.5 56.5t-54.5 144.5q0 121 90 209t242 88v-79q-59 -1 -108 -31t-66 -79z" />
    <glyph glyph-name="uni275C" unicode="&#x275c;" horiz-adv-x="476" 
d="M238 709q84 0 138.5 -56.5t54.5 -144.5q0 -121 -90 -209t-242 -88v79q59 1 108 31t66 79l-7 2q-36 -21 -75.5 -21.5t-70.5 16t-51 52t-20 82.5q0 77 53.5 127.5t135.5 50.5z" />
    <glyph glyph-name="uni275D" unicode="&#x275d;" horiz-adv-x="886" 
d="M204 520l7 -2q36 21 75.5 21.5t70.5 -16t51 -52t20 -82.5q0 -77 -53.5 -127.5t-135.5 -50.5q-84 0 -138.5 56.5t-54.5 144.5q0 121 90 209t242 88v-79q-59 -1 -108 -31t-66 -79zM614 520l7 -2q36 21 75.5 21.5t70.5 -16t51 -52t20 -82.5q0 -77 -53.5 -127.5t-135.5 -50.5
q-84 0 -138.5 56.5t-54.5 144.5q0 121 90 209t242 88v-79q-59 -1 -108 -31t-66 -79z" />
    <glyph glyph-name="uni275E" unicode="&#x275e;" horiz-adv-x="886" 
d="M238 709q84 0 138.5 -56.5t54.5 -144.5q0 -121 -90 -209t-242 -88v79q59 1 108 31t66 79l-7 2q-36 -21 -75.5 -21.5t-70.5 16t-51 52t-20 82.5q0 77 53.5 127.5t135.5 50.5zM648 709q84 0 138.5 -56.5t54.5 -144.5q0 -121 -90 -209t-242 -88v79q59 1 108 31t66 79l-7 2
q-36 -21 -75.5 -21.5t-70.5 16t-51 52t-20 82.5q0 77 53.5 127.5t135.5 50.5z" />
    <glyph glyph-name="uni2761" unicode="&#x2761;" horiz-adv-x="678" 
d="M343 700h255v-551q0 -141 -64.5 -215.5t-211.5 -74.5q-138 0 -213 75t-81 188l72 19q4 -50 19.5 -85.5t37.5 -52t43 -23.5t43 -7q100 0 100 157v116q-277 3 -277 227q0 227 277 227zM339 -68q87 1 133 57.5t46 159.5v478h-96v-497q0 -152 -83 -198z" />
    <glyph glyph-name="uni2776" unicode="&#x2776;" horiz-adv-x="805" 
d="M402 -5q150 0 252.5 102t102.5 252t-102.5 252t-252.5 102q-149 0 -251.5 -102t-102.5 -252t102.5 -252t251.5 -102zM453 571v-374h104v-59h-305v59h135v277l-93 -97l-40 39l153 155h46z" />
    <glyph glyph-name="uni2777" unicode="&#x2777;" horiz-adv-x="805" 
d="M402 -5q150 0 252.5 102t102.5 252t-102.5 252t-252.5 102q-149 0 -251.5 -102t-102.5 -252t102.5 -252t251.5 -102zM296 419l-67 12q10 77 57 113.5t119 36.5t116 -37t44 -95q0 -41 -26.5 -81t-89.5 -98l-81 -71h210v-58h-344v14l156 145q62 56 84 84t22 61t-24 54
t-65 21q-97 0 -111 -101z" />
    <glyph glyph-name="uni2778" unicode="&#x2778;" horiz-adv-x="805" 
d="M402 -5q150 0 252.5 102t102.5 252t-102.5 252t-252.5 102q-149 0 -251.5 -102t-102.5 -252t102.5 -252t251.5 -102zM481 366q41 -8 67.5 -36t26.5 -73q0 -60 -45 -95t-128 -35q-62 0 -107 23t-66 54l47 37q43 -55 130 -55q47 0 75.5 22t28.5 60q0 70 -111 70h-68v50h55
q46 0 73.5 16.5t27.5 46.5q0 64 -91 64q-74 0 -116 -57l-40 35q51 81 156 81q76 0 116.5 -31.5t40.5 -83.5q0 -68 -72 -93z" />
    <glyph glyph-name="uni2779" unicode="&#x2779;" horiz-adv-x="805" 
d="M402 -5q150 0 252.5 102t102.5 252t-102.5 252t-252.5 102q-149 0 -251.5 -102t-102.5 -252t102.5 -252t251.5 -102zM507 270h54v-57h-54v-77h-66v77h-236v54l242 302h60v-299zM443 270v208l-167 -208h167z" />
    <glyph glyph-name="uni277A" unicode="&#x277a;" horiz-adv-x="805" 
d="M402 -5q150 0 252.5 102t102.5 252t-102.5 252t-252.5 102q-149 0 -251.5 -102t-102.5 -252t102.5 -252t251.5 -102zM389 415q86 0 126.5 -39t40.5 -102q0 -67 -46 -108t-123 -41q-82 0 -136 26l20 57q47 -24 109 -24q49 0 80 24t31 66q0 91 -128 91q-40 0 -97 -11l-2 2
l21 209h251v-59h-193l-12 -96q35 5 58 5z" />
    <glyph glyph-name="uni277B" unicode="&#x277b;" horiz-adv-x="805" 
d="M402 -5q150 0 252.5 102t102.5 252t-102.5 252t-252.5 102q-149 0 -251.5 -102t-102.5 -252t102.5 -252t251.5 -102zM421 421q62 0 105 -39t43 -103q0 -66 -47 -109t-122 -43t-122 42.5t-47 109.5q0 68 44 121l136 167h84v-2l-136 -162q26 18 62 18zM400 186
q44 0 72.5 27t28.5 67t-28.5 67t-72.5 27t-73 -26.5t-29 -67.5t29 -67.5t73 -26.5z" />
    <glyph glyph-name="uni277C" unicode="&#x277c;" horiz-adv-x="805" 
d="M402 -5q150 0 252.5 102t102.5 252t-102.5 252t-252.5 102q-149 0 -251.5 -102t-102.5 -252t102.5 -252t251.5 -102zM260 499v59h305v-12l-176 -421h-72l158 374h-215z" />
    <glyph glyph-name="uni277D" unicode="&#x277d;" horiz-adv-x="805" 
d="M402 -5q150 0 252.5 102t102.5 252t-102.5 252t-252.5 102q-149 0 -251.5 -102t-102.5 -252t102.5 -252t251.5 -102zM479 370q44 -14 70 -44t26 -70q0 -56 -48 -92t-124 -36q-75 0 -124 36t-49 92q0 40 27 70t71 44q-34 12 -53.5 36.5t-19.5 55.5q0 49 41.5 81t106.5 32
t106.5 -31.5t41.5 -81.5q0 -31 -19.5 -55.5t-52.5 -36.5zM405 522q-38 0 -63 -18.5t-25 -46.5q0 -29 25 -48t63 -19q37 0 60.5 19t23.5 48q0 28 -23.5 46.5t-60.5 18.5zM405 183q45 0 74 22.5t29 57.5t-29 58t-74 23q-47 0 -77 -23t-30 -58t30 -57.5t77 -22.5z" />
    <glyph glyph-name="uni277E" unicode="&#x277e;" horiz-adv-x="805" 
d="M403 704q-150 0 -252.5 -102t-102.5 -252t102.5 -252t252.5 -102q149 0 251.5 102t102.5 252t-102.5 252t-251.5 102zM384 278q-62 0 -105 39.5t-43 102.5q0 66 47 109t122 43t122.5 -43t47.5 -109q0 -67 -45 -121l-136 -167h-84v2l137 162q-28 -18 -63 -18zM405 513
q-44 0 -72.5 -27t-28.5 -67q0 -41 29 -67.5t73 -26.5t72.5 27t28.5 67q0 41 -29 67.5t-73 26.5z" />
    <glyph glyph-name="uni277F" unicode="&#x277f;" horiz-adv-x="805" 
d="M402 -5q150 0 252.5 102t102.5 252t-102.5 252t-252.5 102q-149 0 -251.5 -102t-102.5 -252t102.5 -252t251.5 -102zM508 140q-72 0 -112 55.5t-40 156.5t40 156.5t112 55.5q71 0 111.5 -55.5t40.5 -156.5q-1 -101 -41 -156.5t-111 -55.5zM303 558v-413h-64v322l-72 -81
l-38 36l130 136h44zM508 198q42 0 64 40t22 114q0 154 -86 154q-43 0 -65 -40t-21 -114q0 -74 22 -114t64 -40z" />
    <glyph glyph-name="uni2780" unicode="&#x2780;" horiz-adv-x="805" 
d="M402 -5q-149 0 -251.5 102t-102.5 252t102.5 252t251.5 102q150 0 252.5 -102t102.5 -252t-102.5 -252t-252.5 -102zM402 41q129 0 217.5 89.5t88.5 218.5t-88.5 218t-217.5 89q-128 0 -216.5 -89t-88.5 -218t88.5 -218.5t216.5 -89.5zM448 546v-327h91v-49h-264v49h118
v245l-82 -85l-33 32l132 135h38z" />
    <glyph glyph-name="uni2781" unicode="&#x2781;" horiz-adv-x="805" 
d="M402 -5q-149 0 -251.5 102t-102.5 252t102.5 252t251.5 102q150 0 252.5 -102t102.5 -252t-102.5 -252t-252.5 -102zM402 41q129 0 217.5 89.5t88.5 218.5t-88.5 218t-217.5 89q-128 0 -216.5 -89t-88.5 -218t88.5 -218.5t216.5 -89.5zM308 412l-56 10q17 130 153 130
q63 0 101 -32t38 -82q0 -36 -23.5 -71t-79.5 -86l-73 -62h187v-49h-299v11l135 126q55 48 74.5 73.5t19.5 54.5t-21.5 47.5t-57.5 18.5q-85 0 -98 -89z" />
    <glyph glyph-name="uni2782" unicode="&#x2782;" horiz-adv-x="805" 
d="M402 -5q-149 0 -251.5 102t-102.5 252t102.5 252t251.5 102q150 0 252.5 -102t102.5 -252t-102.5 -252t-252.5 -102zM402 41q129 0 217.5 89.5t88.5 218.5t-88.5 218t-217.5 89q-128 0 -216.5 -89t-88.5 -218t88.5 -218.5t216.5 -89.5zM470 363q35 -6 58.5 -30.5
t23.5 -62.5q0 -52 -39.5 -83t-110.5 -31q-54 0 -93 20t-57 48l39 30q39 -48 115 -48q41 0 66 19t25 53q0 63 -97 63h-60v41h49q40 0 64 15t24 41q0 58 -80 58q-65 0 -101 -51l-34 30q46 70 134 70q66 0 101.5 -27.5t35.5 -72.5q0 -59 -63 -82z" />
    <glyph glyph-name="uni2783" unicode="&#x2783;" horiz-adv-x="805" 
d="M402 -5q-149 0 -251.5 102t-102.5 252t102.5 252t251.5 102q150 0 252.5 -102t102.5 -252t-102.5 -252t-252.5 -102zM402 41q129 0 217.5 89.5t88.5 218.5t-88.5 218t-217.5 89q-128 0 -216.5 -89t-88.5 -218t88.5 -218.5t216.5 -89.5zM490 280h47v-48h-47v-68h-54v68
h-208v45l212 263h50v-260zM437 280v185l-148 -185h148z" />
    <glyph glyph-name="uni2784" unicode="&#x2784;" horiz-adv-x="805" 
d="M402 -5q-149 0 -251.5 102t-102.5 252t102.5 252t251.5 102q150 0 252.5 -102t102.5 -252t-102.5 -252t-252.5 -102zM402 41q129 0 217.5 89.5t88.5 218.5t-88.5 218t-217.5 89q-128 0 -216.5 -89t-88.5 -218t88.5 -218.5t216.5 -89.5zM392 406q75 0 110.5 -34t35.5 -89
q0 -59 -40 -94t-107 -35q-70 0 -118 23l17 47q40 -21 95 -21q43 0 70 21.5t27 58.5q0 80 -112 80q-38 0 -84 -9l-2 2l19 180h217v-49h-168l-12 -86q33 5 52 5z" />
    <glyph glyph-name="uni2785" unicode="&#x2785;" horiz-adv-x="805" 
d="M402 -5q-149 0 -251.5 102t-102.5 252t102.5 252t251.5 102q150 0 252.5 -102t102.5 -252t-102.5 -252t-252.5 -102zM402 41q129 0 217.5 89.5t88.5 218.5t-88.5 218t-217.5 89q-128 0 -216.5 -89t-88.5 -218t88.5 -218.5t216.5 -89.5zM415 412q54 0 91.5 -34t37.5 -89
q0 -57 -41 -94.5t-106 -37.5t-105.5 37.5t-40.5 94.5t38 104l119 146h70v-1l-119 -143q23 17 56 17zM397 206q39 0 64.5 24t25.5 59q0 36 -25.5 60t-64.5 24q-38 0 -64 -24t-26 -60q0 -35 26 -59t64 -24z" />
    <glyph glyph-name="uni2786" unicode="&#x2786;" horiz-adv-x="805" 
d="M402 -5q-149 0 -251.5 102t-102.5 252t102.5 252t251.5 102q150 0 252.5 -102t102.5 -252t-102.5 -252t-252.5 -102zM402 41q129 0 217.5 89.5t88.5 218.5t-88.5 218t-217.5 89q-128 0 -216.5 -89t-88.5 -218t88.5 -218.5t216.5 -89.5zM281 479v49h264v-10l-153 -366h-60
l138 327h-189z" />
    <glyph glyph-name="uni2787" unicode="&#x2787;" horiz-adv-x="805" 
d="M402 -5q-149 0 -251.5 102t-102.5 252t102.5 252t251.5 102q150 0 252.5 -102t102.5 -252t-102.5 -252t-252.5 -102zM402 41q129 0 217.5 89.5t88.5 218.5t-88.5 218t-217.5 89q-128 0 -216.5 -89t-88.5 -218t88.5 -218.5t216.5 -89.5zM468 368q39 -12 61.5 -38.5
t22.5 -61.5q0 -48 -42 -79.5t-106 -31.5t-107.5 32t-43.5 79q0 35 23.5 61.5t62.5 38.5q-65 23 -65 81q0 41 37 68.5t93 27.5q55 0 91.5 -27.5t36.5 -68.5q0 -57 -64 -81zM405 501q-32 0 -55.5 -17t-23.5 -41q0 -25 22.5 -42t56.5 -17q33 0 53.5 16.5t20.5 42.5
q0 24 -21.5 41t-52.5 17zM405 204q39 0 65 20t26 51t-25 51t-66 20q-43 0 -69 -20t-26 -51t27 -51t68 -20z" />
    <glyph glyph-name="uni2788" unicode="&#x2788;" horiz-adv-x="805" 
d="M403 704q149 0 251.5 -102t102.5 -252t-102.5 -252t-251.5 -102q-150 0 -252.5 102t-102.5 252t102.5 252t252.5 102zM403 658q-128 0 -217 -89.5t-89 -218.5t89 -218t217 -89t216.5 89t88.5 218t-88.5 218.5t-216.5 89.5zM390 287q-54 0 -91 34t-37 89q0 57 41 94.5
t105 37.5q65 0 105.5 -37.5t40.5 -94.5q0 -58 -37 -104l-120 -146h-70v1l119 143q-22 -17 -56 -17zM408 493q-39 0 -64.5 -24t-25.5 -59q0 -36 25.5 -60t64.5 -24t64.5 24t25.5 60q0 35 -25.5 59t-64.5 24z" />
    <glyph glyph-name="uni2789" unicode="&#x2789;" horiz-adv-x="805" 
d="M402 -5q-149 0 -251.5 102t-102.5 252t102.5 252t251.5 102q150 0 252.5 -102t102.5 -252t-102.5 -252t-252.5 -102zM402 41q129 0 217.5 89.5t88.5 218.5t-88.5 218t-217.5 89q-128 0 -216.5 -89t-88.5 -218t88.5 -218.5t216.5 -89.5zM494 168q-63 0 -98 48.5t-35 135.5
q0 88 35 136t98 48q61 0 96 -48.5t35 -135.5q-1 -87 -36 -135.5t-95 -48.5zM314 531v-359h-53v283l-64 -73l-33 31l113 118h37zM494 217q37 0 56.5 35.5t19.5 99.5q0 136 -76 136q-78 0 -78 -136q0 -135 78 -135z" />
    <glyph glyph-name="uni2B1F" unicode="&#x2b1f;" horiz-adv-x="753" 
d="M591 0h-427l-132 406l346 250l344 -250z" />
    <glyph glyph-name="uni2B20" unicode="&#x2b20;" horiz-adv-x="753" 
d="M591 0h-427l-132 406l346 250l344 -250zM106 382l104 -319h334l104 319l-270 197z" />
    <glyph glyph-name="uni2B21" unicode="&#x2b21;" horiz-adv-x="768" 
d="M698 115l-314 -182l-315 182v364l315 181l314 -181v-364zM134 153l250 -145l249 145v287l-249 145l-250 -145v-287z" />
    <glyph glyph-name="uni2B22" unicode="&#x2b22;" horiz-adv-x="768" 
d="M698 115l-314 -182l-315 182v364l315 181l314 -181v-364z" />
    <glyph glyph-name="uniFB1D" unicode="&#xfb1d;" horiz-adv-x="256" 
d="M81 245v355h94v-339zM130 73q-16 0 -27.5 11.5t-11.5 28.5q0 16 11.5 27.5t27.5 11.5t28 -11.5t12 -27.5q0 -17 -12 -28.5t-28 -11.5z" />
    <glyph glyph-name="uniFB1F" unicode="&#xfb1f;" horiz-adv-x="491" 
d="M75 252v348h94v-332zM316 252v348h94v-332zM77 27v67q169 -53 339 0v-67q-73 -35 -169.5 -35t-169.5 35z" />
    <glyph glyph-name="uniFB20" unicode="&#xfb20;" horiz-adv-x="694" 
d="M526 301v299h94v-299q0 -159 -72 -230t-234 -71h-257v80h156l-134 520h97l134 -520q121 2 168.5 51.5t47.5 169.5z" />
    <glyph glyph-name="uniFB21" unicode="&#xfb21;" horiz-adv-x="1100" 
d="M744 212l295 -204v-8h-129l-481 333q-67 -11 -117.5 -33.5t-88.5 -61.5t-56.5 -98.5t-16.5 -139.5h-94q-4 170 72 261t222 127l-295 204v8h130l481 -333q138 23 210 100.5t68 232.5h94q4 -170 -72 -261t-222 -127z" />
    <glyph glyph-name="uniFB22" unicode="&#xfb22;" horiz-adv-x="1189" 
d="M42 520v80h1105v-80q-101 0 -151 -46t-50 -148v-326h-94v322q0 147 102 198h-912z" />
    <glyph glyph-name="uniFB23" unicode="&#xfb23;" horiz-adv-x="1206" 
d="M78 520v80h766q147 0 216.5 -73t69.5 -227v-300h-94v300q0 115 -46 167.5t-146 52.5h-766zM85 0v320l94 13v-333h-94z" />
    </font>
</defs>
</svg>
